×

¿Problemas para descargar con Mozilla, EDGE? Deshabilita la opción "Abrir vinculos en una pestaña nueva" tal como lo muestra ésta imagen.

Euphoria Special Episode Part 1: Rue (2020) AMZN WEB-DL 1080p Latino

587 vistas

Información de Euphoria Special Episode Part 1: Rue (2020) AMZN WEB-DL 1080p Latino

Datos de la película

  • Calidad: WEBDL
  • Audio: Español Latino AC3 2.0 WEB-DL - Ingles AC3 5.1 WEB-DL
  • Subtitulos: Español Latino SRT - Ingles SRT
  • Resolución: 1920x1080
  • Formato: MKV
  • Codec: H.264
  • Encoder: cinemaniahdd
  • Mediainfo: Clic para Mostrar Datos Ver
  • Euphoria Special Episode Part 1, Rue (2020) AMZN WEB-DL 1080p Latino [CNMNHDD].mkv
    Format                      : Matroska
    Format version              : Version 4
    File size                   : 4.16 GiB
    Duration                    : 57 min 7 s
    Overall bit rate            : 10.4 Mb/s
    Movie name                  : Euphoria Special Episode Part 1 (2020) - CinemaniaHDD.Net
    Encoded date                : UTC 2020-12-05 00:15:09
    Writing application         : mkvmerge v51.0.0 ('I Wish') 64-bit
    Writing library             : libebml v1.4.0 + libmatroska v1.6.2

    Video
    ID                          : 1
    Format                      : AVC
    Format/Info                 : Advanced Video Codec
    Format profile              : High@L4
    Format settings             : CABAC / 4 Ref Frames
    Format settings, CABAC      : Yes
    Format settings, Reference  : 4 frames
    Codec ID                    : V_MPEG4/ISO/AVC
    Duration                    : 57 min 5 s
    Bit rate mode               : Constant
    Bit rate                    : 10 000 kb/s
    Width                       : 1 920 pixels
    Height                      : 1 080 pixels
    Display aspect ratio        : 16:9
    Frame rate mode             : Constant
    Frame rate                  : 23.976 (23976/1000) FPS
    Original frame rate         : 23.976 (24000/1001) FPS
    Color space                 : YUV
    Chroma subsampling          : 4:2:0
    Bit depth                   : 8 bits
    Scan type                   : Progressive
    Bits/(Pixel*Frame)          : 0.201
    Stream size                 : 3.80 GiB (91%)
    Title                       : CinemaniaHDD
    Default                     : Yes
    Forced                      : No
    Color range                 : Limited
    Color primaries             : BT.709
    Transfer characteristics    : BT.709
    Matrix coefficients         : BT.709

    Audio #1
    ID                          : 2
    Format                      : AC-3
    Format/Info                 : Audio Coding 3
    Commercial name             : Dolby Digital
    Codec ID                    : A_AC3
    Duration                    : 57 min 6 s
    Bit rate mode               : Constant
    Bit rate                    : 256 kb/s
    Channel(s)                  : 2 channels
    Channel layout              : L R
    Sampling rate               : 48.0 kHz
    Frame rate                  : 31.250 FPS (1536 SPF)
    Compression mode            : Lossy
    Stream size                 : 105 MiB (2%)
    Title                       : Español latino [CinemaniaHDD]
    Language                    : Spanish
    Service kind                : Complete Main
    Default                     : Yes
    Forced                      : No

    Audio #2
    ID                          : 3
    Format                      : E-AC-3
    Format/Info                 : Enhanced AC-3
    Commercial name             : Dolby Digital Plus
    Codec ID                    : A_EAC3
    Duration                    : 57 min 7 s
    Bit rate mode               : Constant
    Bit rate                    : 640 kb/s
    Channel(s)                  : 6 channels
    Channel layout              : L R C LFE Ls Rs
    Sampling rate               : 48.0 kHz
    Frame rate                  : 31.250 FPS (1536 SPF)
    Compression mode            : Lossy
    Stream size                 : 261 MiB (6%)
    Title                       : Inglés [CinemaniaHDD]
    Language                    : English
    Service kind                : Complete Main
    Default                     : No
    Forced                      : No

    Text #1
    ID                          : 4
    Format                      : UTF-8
    Codec ID                    : S_TEXT/UTF8
    Codec ID/Info               : UTF-8 Plain Text
    Duration                    : 51 min 17 s
    Bit rate                    : 65 b/s
    Count of elements           : 788
    Stream size                 : 24.4 KiB (0%)
    Title                       : Español latino [CinemaniaHDD]
    Language                    : Spanish
    Default                     : No
    Forced                      : No

    Text #2
    ID                          : 5
    Format                      : UTF-8
    Codec ID                    : S_TEXT/UTF8
    Codec ID/Info               : UTF-8 Plain Text
    Duration                    : 56 min 56 s
    Bit rate                    : 79 b/s
    Count of elements           : 1000
    Stream size                 : 33.2 KiB (0%)
    Title                       : Inglés [CinemaniaHDD]
    Language                    : English
    Default                     : No
    Forced                      : No

     

  • Peso: 4.16 GiB

Sinopsis

Luego de ser abandonada por Jules en la estación de tren y sufrir una recaída en las drogas, Rue celebra la Navidad.

Ficha técnica

Video trailer de la película

Enlaces de descarga

Rip de Bluray

Descargar Euphoria Special Episode Part 1: Rue (2020) AMZN WEB-DL 1080p Latino




Aportes de DPeliculasHDmega la pass es:dpeliculashdmega.org Aportes de CinemaniaHD la pass es:cinemaniahdd.com
Guardado en : Drama , HBO , Series

Películas relacionadas

descargar Euphoria Special Episode Part 1: Rue (2020) AMZN WEB-DL 1080p Latino WEBDL 1080p gratis, Euphoria Special Episode Part 1: Rue (2020) AMZN WEB-DL 1080p Latino WEBDL mega 1 link, Euphoria Special Episode Part 1: Rue (2020) AMZN WEB-DL 1080p Latino WEBDL serie completa, descargar Euphoria Special Episode Part 1: Rue (2020) AMZN WEB-DL 1080p Latino WEBDL gratis en mega.

Euphoria Special Episode Part 1: Rue (2020) AMZN WEB-DL 1080p Latino pelicula full hd, Euphoria Special Episode Part 1: Rue (2020) AMZN WEB-DL 1080p Latino mega latino, Euphoria Special Episode Part 1: Rue (2020) AMZN WEB-DL 1080p Latino 4k latino, Euphoria Special Episode Part 1: Rue (2020) AMZN WEB-DL 1080p Latino pelicula completa, Euphoria Special Episode Part 1: Rue (2020) AMZN WEB-DL 1080p Latino descargar gratis, descargar Euphoria Special Episode Part 1: Rue (2020) AMZN WEB-DL 1080p Latino pelicula latino, Euphoria Special Episode Part 1: Rue (2020) AMZN WEB-DL 1080p Latino 1 link mega, Euphoria Special Episode Part 1: Rue (2020) AMZN WEB-DL 1080p Latino 1 link google drive, Euphoria Special Episode Part 1: Rue (2020) AMZN WEB-DL 1080p Latino hd 1080p latino.
Comentarios 0