×

¿Problemas para descargar con Mozilla, EDGE? Deshabilita la opción "Abrir vinculos en una pestaña nueva" tal como lo muestra ésta imagen.

Euphoria Especial Episodio Part 2: Jules (2021) HMAX WEB-DL 1080p Latino

461 vistas

Información de Euphoria Especial Episodio Part 2: Jules (2021) HMAX WEB-DL 1080p Latino

Datos de la película

  • Calidad: WEBDL
  • Audio: Español Latino AC3 2.0 WEB-DL - Ingles AC3 5.1 WEB-DL
  • Subtitulos: Español Latino SRT- FORZADOS SRT
  • Resolución: 1920x1080
  • Formato: MKV
  • Codec: H.264
  • Encoder: cinemaniahdd
  • Mediainfo: Clic para Mostrar Datos Ver
  • Euphoria Especial Episode Part 2. Jules (2021) HMAX WEB-DL 1080p Latino [CNMNHDD].mkv
    Format                      : Matroska
    Format version              : Version 4
    File size                   : 3.04 GiB
    Duration                    : 48 min 18 s
    Overall bit rate mode       : Variable
    Overall bit rate            : 9 012 kb/s
    Movie name                  : Euphoria Especial Episode Part 2. Jules (2021) - CinemaniaHDD.Net
    Encoded date                : UTC 2021-01-23 02:09:30
    Writing application         : mkvmerge v51.0.0 ('I Wish') 64-bit
    Writing library             : libebml v1.4.0 + libmatroska v1.6.2

    Video
    ID                          : 1
    Format                      : AVC
    Format/Info                 : Advanced Video Codec
    Format profile              : High@L4
    Format settings             : CABAC / 4 Ref Frames
    Format settings, CABAC      : Yes
    Format settings, Reference  : 4 frames
    Codec ID                    : V_MPEG4/ISO/AVC
    Duration                    : 48 min 18 s
    Bit rate mode               : Variable
    Bit rate                    : 8 242 kb/s
    Maximum bit rate            : 12.4 Mb/s
    Width                       : 1 920 pixels
    Height                      : 1 080 pixels
    Display aspect ratio        : 16:9
    Frame rate mode             : Constant
    Frame rate                  : 23.976 (24000/1001) FPS
    Color space                 : YUV
    Chroma subsampling          : 4:2:0
    Bit depth                   : 8 bits
    Scan type                   : Progressive
    Bits/(Pixel*Frame)          : 0.166
    Stream size                 : 2.78 GiB (91%)
    Title                       : CinemaniaHDD
    Language                    : English
    Default                     : Yes
    Forced                      : No
    Color range                 : Limited
    Color primaries             : BT.709
    Transfer characteristics    : BT.709
    Matrix coefficients         : BT.709

    Audio #1
    ID                          : 2
    Format                      : AC-3
    Format/Info                 : Audio Coding 3
    Commercial name             : Dolby Digital
    Codec ID                    : A_AC3
    Duration                    : 48 min 18 s
    Bit rate mode               : Constant
    Bit rate                    : 384 kb/s
    Channel(s)                  : 2 channels
    Channel layout              : L R
    Sampling rate               : 48.0 kHz
    Frame rate                  : 31.250 FPS (1536 SPF)
    Compression mode            : Lossy
    Stream size                 : 133 MiB (4%)
    Title                       : Español latino [CinemaniaHDD]
    Language                    : Spanish
    Service kind                : Complete Main
    Default                     : Yes
    Forced                      : No

    Audio #2
    ID                          : 3
    Format                      : AC-3
    Format/Info                 : Audio Coding 3
    Commercial name             : Dolby Digital
    Codec ID                    : A_AC3
    Duration                    : 48 min 18 s
    Bit rate mode               : Constant
    Bit rate                    : 384 kb/s
    Channel(s)                  : 6 channels
    Channel layout              : L R C LFE Ls Rs
    Sampling rate               : 48.0 kHz
    Frame rate                  : 31.250 FPS (1536 SPF)
    Compression mode            : Lossy
    Stream size                 : 133 MiB (4%)
    Title                       : Inglés [CinemaniaHDD]
    Language                    : English
    Service kind                : Complete Main
    Default                     : No
    Forced                      : No

    Text #1
    ID                          : 4
    Format                      : UTF-8
    Codec ID                    : S_TEXT/UTF8
    Codec ID/Info               : UTF-8 Plain Text
    Duration                    : 8 min 50 s
    Bit rate                    : 3 b/s
    Count of elements           : 14
    Stream size                 : 241 Bytes (0%)
    Title                       : Forzados [CinemaniaHDD]
    Language                    : Spanish
    Default                     : Yes
    Forced                      : Yes

    Text #2
    ID                          : 5
    Format                      : UTF-8
    Codec ID                    : S_TEXT/UTF8
    Codec ID/Info               : UTF-8 Plain Text
    Duration                    : 48 min 7 s
    Bit rate                    : 51 b/s
    Count of elements           : 1052
    Stream size                 : 18.0 KiB (0%)
    Title                       : Español latino [CC] [CinemaniaHDD]
    Language                    : Spanish
    Default                     : No
    Forced                      : No

    Text #3
    ID                          : 6
    Format                      : UTF-8
    Codec ID                    : S_TEXT/UTF8
    Codec ID/Info               : UTF-8 Plain Text
    Duration                    : 46 min 47 s
    Bit rate                    : 60 b/s
    Count of elements           : 1052
    Stream size                 : 20.8 KiB (0%)
    Title                       : Inglés [CC] [CinemaniaHDD]
    Language                    : English
    Default                     : No
    Forced                      : No

     

  • Peso: 3.04 GiB

Sinopsis

Esta no es la segunda temporada, pero prepárate para todo lo que se viene en la vida de Jules.

Ficha técnica

Video trailer de la película

Enlaces de descarga

Rip de Bluray

Descargar Euphoria Especial Episodio Part 2: Jules (2021) HMAX WEB-DL 1080p Latino




Aportes de DPeliculasHDmega la pass es:dpeliculashdmega.org Aportes de CinemaniaHD la pass es:cinemaniahdd.com
Guardado en : Drama , HBO , Series

Películas relacionadas

descargar Euphoria Especial Episodio Part 2: Jules (2021) HMAX WEB-DL 1080p Latino WEBDL 1080p gratis, Euphoria Especial Episodio Part 2: Jules (2021) HMAX WEB-DL 1080p Latino WEBDL mega 1 link, Euphoria Especial Episodio Part 2: Jules (2021) HMAX WEB-DL 1080p Latino WEBDL serie completa, descargar Euphoria Especial Episodio Part 2: Jules (2021) HMAX WEB-DL 1080p Latino WEBDL gratis en mega.

Euphoria Especial Episodio Part 2: Jules (2021) HMAX WEB-DL 1080p Latino pelicula full hd, Euphoria Especial Episodio Part 2: Jules (2021) HMAX WEB-DL 1080p Latino mega latino, Euphoria Especial Episodio Part 2: Jules (2021) HMAX WEB-DL 1080p Latino 4k latino, Euphoria Especial Episodio Part 2: Jules (2021) HMAX WEB-DL 1080p Latino pelicula completa, Euphoria Especial Episodio Part 2: Jules (2021) HMAX WEB-DL 1080p Latino descargar gratis, descargar Euphoria Especial Episodio Part 2: Jules (2021) HMAX WEB-DL 1080p Latino pelicula latino, Euphoria Especial Episodio Part 2: Jules (2021) HMAX WEB-DL 1080p Latino 1 link mega, Euphoria Especial Episodio Part 2: Jules (2021) HMAX WEB-DL 1080p Latino 1 link google drive, Euphoria Especial Episodio Part 2: Jules (2021) HMAX WEB-DL 1080p Latino hd 1080p latino.
Comentarios 0