Eternals (2021) D+ IMAX WEB-DL 4K UHD HDR Latino

1.587 vistas

Información de Eternals (2021) D+ IMAX WEB-DL 4K UHD HDR Latino

Datos de la película

  • Calidad: WEBDL
  • Audio: Se especifica abajo de la Sinopsis
  • Subtitulos: Español Latino SRT- FORZADOS SRT
  • Resolución: 3840x2160p
  • Formato: MKV
  • Codec: HEVC
  • Encoder: Melkor
  • Mediainfo: Clic para Mostrar Datos Ver
  • Eternals (2021) D+ IMAX WEB UHD HDR Latino.mkv
    Format                      : Matroska
    Format version              : Version 4
    File size                   : 20.0 GiB
    Duration                    : 2 h 35 min
    Overall bit rate            : 18.3 Mb/s
    Movie name                  : Eternals (2021) CinemaniaHDD.Net
    Encoded date                : UTC 2022-01-12 17:14:11
    Writing application         : mkvmerge v56.1.0 ('My Friend') 64-bit
    Writing library             : libebml v1.4.2 + libmatroska v1.6.4
    Attachments                 : CINEMANIAHD.png

    Video
    ID                          : 1
    Format                      : HEVC
    Format/Info                 : High Efficiency Video Coding
    Format profile              : Main 10@L5@High
    HDR format                  : SMPTE ST 2086, HDR10 compatible
    Codec ID                    : V_MPEGH/ISO/HEVC
    Duration                    : 2 h 35 min
    Bit rate                    : 16.5 Mb/s
    Width                       : 3 840 pixels
    Height                      : 2 160 pixels
    Display aspect ratio        : 16:9
    Frame rate mode             : Constant
    Frame rate                  : 23.976 (24000/1001) FPS
    Color space                 : YUV
    Chroma subsampling          : 4:2:0
    Bit depth                   : 10 bits
    Bits/(Pixel*Frame)          : 0.083
    Stream size                 : 18.0 GiB (90%)
    Title                       : Web 2160p HDR [CinemaniaHDD]
    Language                    : English
    Default                     : Yes
    Forced                      : No
    Color range                 : Limited
    Color primaries             : BT.2020
    Transfer characteristics    : PQ
    Matrix coefficients         : BT.2020 non-constant
    Mastering display color pri : Display P3
    Mastering display luminance : min: 0.0000 cd/m2, max: 1000 cd/m2

    Audio #1
    ID                          : 2
    Format                      : AC-3
    Format/Info                 : Audio Coding 3
    Commercial name             : Dolby Digital
    Codec ID                    : A_AC3
    Duration                    : 2 h 35 min
    Bit rate mode               : Constant
    Bit rate                    : 384 kb/s
    Channel(s)                  : 6 channels
    Channel layout              : L R C LFE Ls Rs
    Sampling rate               : 48.0 kHz
    Frame rate                  : 31.250 FPS (1536 SPF)
    Compression mode            : Lossy
    Stream size                 : 428 MiB (2%)
    Title                       : Español Latino AC3 [CinemaniaHDD]
    Language                    : Spanish
    Service kind                : Complete Main
    Default                     : Yes
    Forced                      : Yes

    Audio #2
    ID                          : 3
    Format                      : E-AC-3 JOC
    Format/Info                 : Enhanced AC-3 with Joint Object Coding
    Commercial name             : Dolby Digital Plus with Dolby Atmos
    Codec ID                    : A_EAC3
    Duration                    : 2 h 35 min
    Bit rate mode               : Constant
    Bit rate                    : 768 kb/s
    Channel(s)                  : 6 channels
    Channel layout              : L R C LFE Ls Rs
    Sampling rate               : 48.0 kHz
    Frame rate                  : 31.250 FPS (1536 SPF)
    Compression mode            : Lossy
    Stream size                 : 856 MiB (4%)
    Title                       : Ingles [CinemaniaHDD]
    Language                    : English
    Service kind                : Complete Main
    Default                     : No
    Forced                      : No
    Complexity index            : 16
    Number of dynamic objects   : 15
    Bed channel count           : 1 channel
    Bed channel configuration   : LFE

    Audio #3
    ID                          : 4
    Format                      : E-AC-3
    Format/Info                 : Enhanced AC-3
    Commercial name             : Dolby Digital Plus
    Format settings             : Dolby Surround EX
    Codec ID                    : A_EAC3
    Duration                    : 2 h 35 min
    Bit rate mode               : Constant
    Bit rate                    : 640 kb/s
    Channel(s)                  : 8 channels
    Channel layout              : L R C LFE Ls Rs Lb Rb
    Sampling rate               : 48.0 kHz
    Frame rate                  : 31.250 FPS (1536 SPF)
    Compression mode            : Lossy
    Stream size                 : 713 MiB (3%)
    Title                       : Español Latino EAC3 [CinemaniaHDD]
    Language                    : Spanish
    Service kind                : Complete Main
    Default                     : No
    Forced                      : No

    Text #1
    ID                          : 5
    Format                      : UTF-8
    Codec ID                    : S_TEXT/UTF8
    Codec ID/Info               : UTF-8 Plain Text
    Duration                    : 2 h 35 min
    Bit rate                    : 2 b/s
    Count of elements           : 100
    Stream size                 : 2.85 KiB (0%)
    Title                       : Forzados-SRT [CinemaniaHDD]
    Language                    : Spanish
    Default                     : Yes
    Forced                      : Yes

    Text #2
    ID                          : 6
    Format                      : UTF-8
    Codec ID                    : S_TEXT/UTF8
    Codec ID/Info               : UTF-8 Plain Text
    Duration                    : 2 h 35 min
    Bit rate                    : 42 b/s
    Count of elements           : 1645
    Stream size                 : 48.3 KiB (0%)
    Title                       : Español-SRT [CinemaniaHDD]
    Language                    : Spanish
    Default                     : No
    Forced                      : No

    Text #3
    ID                          : 7
    Format                      : UTF-8
    Codec ID                    : S_TEXT/UTF8
    Codec ID/Info               : UTF-8 Plain Text
    Duration                    : 2 h 33 min
    Bit rate                    : 39 b/s
    Count of elements           : 1708
    Stream size                 : 44.4 KiB (0%)
    Title                       : Ingles-SRT [CinemaniaHDD]
    Language                    : English
    Default                     : No
    Forced                      : No

  • Peso: 20.0 GiB

Sinopsis

Descargar Eternals (2021) D+ IMAX WEB-DL 4K UHD HDR Latino. Hace millones de años, los seres cósmicos conocidos como los Celestiales comenzaron a experimentar genéticamente con los humanos. Su intención era crear individuos superpoderosos que hicieran únicamente el bien, pero algo salió mal y aparecieron los Desviantes, destruyendo y creando el caos a su paso. Ambas razas se han enfrentado en una eterna lucha de poder a lo largo de la historia. En medio de esta guerra, Ikaris y Sersi tratarán de vivir su propia historia de amor.

Español Latino EAC3 7.1 & AC3 5.1 – Ingles EAC3 5.1

Ficha técnica

Video trailer de la película

Enlaces de descarga

Rip de Bluray

Descargar Eternals (2021) D+ IMAX WEB-DL 4K UHD HDR Latino




Aportes de DPeliculasHDmega la pass es:dpeliculashdmega.org Aportes de CinemaniaHD la pass es:cinemaniahdd.com

Películas relacionadas

  • Ghostbusters: El Legado (2021) HD 1080p Latino

    Ghostbusters: El Legado (2021) HD 1080p Latino

    2021
    Ghostbusters: El Legado (2021) HD 1080p Latino

    2h 4m 2021

    Descargar Ghostbusters: El Legado (2021) HD 1080p Latino. Una madre soltera y sus dos hijos se van a...

    Director: Jason Reitman

    Género: Aventura

    Actores: Tracy Letts

  • Eternals (2021) HD 1080p Latino

    Eternals (2021) HD 1080p Latino

    2021
    Eternals (2021) HD 1080p Latino

    2h 36m 2021

    Descargar Eternals (2021) HD 1080p Latino. Hace millones de años, los seres cósmicos conocidos como...

    Director: Simon Warnock

    Género: Acción

    Actores: Zain Al Rafeea

  • Eternals (2021) PLACEBO Full HD 1080p Latino

    Eternals (2021) PLACEBO Full HD 1080p Latino

    2021
    Eternals (2021) PLACEBO Full HD 1080p Latino

    2h 36m 2021

    Descargar Eternals (2021) PLACEBO Full HD 1080p Latino. Hace millones de años, los seres cósmicos conocidos...

    Director: Simon Warnock

    Género: Acción

    Actores: Zain Al Rafeea

  • Eternals (2021) REMUX 1080p Latino

    Eternals (2021) REMUX 1080p Latino

    2021
    Eternals (2021) REMUX 1080p Latino

    2h 36m 2021

    Descargar Eternals (2021) REMUX 1080p Latino. Hace millones de años, los seres cósmicos conocidos como...

    Director: Simon Warnock

    Género: Acción

    Actores: Zain Al Rafeea

Eternals (2021) D+ IMAX WEB-DL 4K UHD HDR Latino pelicula full hd, Eternals (2021) D+ IMAX WEB-DL 4K UHD HDR Latino mega latino, Eternals (2021) D+ IMAX WEB-DL 4K UHD HDR Latino 4k latino, Eternals (2021) D+ IMAX WEB-DL 4K UHD HDR Latino pelicula completa, Eternals (2021) D+ IMAX WEB-DL 4K UHD HDR Latino descargar gratis, descargar Eternals (2021) D+ IMAX WEB-DL 4K UHD HDR Latino pelicula latino, Eternals (2021) D+ IMAX WEB-DL 4K UHD HDR Latino 1 link mega, Eternals (2021) D+ IMAX WEB-DL 4K UHD HDR Latino 1 link google drive, Eternals (2021) D+ IMAX WEB-DL 4K UHD HDR Latino hd 1080p latino.
Comentarios 0