×

¿Problemas para descargar con Mozilla, EDGE? Deshabilita la opción "Abrir vinculos en una pestaña nueva" tal como lo muestra ésta imagen.

Eternals (2021) REMUX 1080p Latino

1.073 vistas

Información de Eternals (2021) REMUX 1080p Latino

Datos de la película

  • Calidad: Full 1080p
  • Audio: Se especifica abajo de la Sinopsis
  • Subtitulos: Español Latino SRT- FORZADOS SRT
  • Resolución: 1920x1080p
  • Formato: MKV
  • Codec: H.264
  • Encoder: Melkor
  • Mediainfo: Clic para Mostrar Datos Ver
  • Eternals (2021) REMUX 1080p Latino.mkv
    Format                      : Matroska
    Format version              : Version 4
    File size                   : 34.5 GiB
    Duration                    : 2 h 35 min
    Overall bit rate mode       : Variable
    Overall bit rate            : 31.7 Mb/s
    Movie name                  : Eternals (2021) CinemaniaHDD.Net
    Encoded date                : UTC 2022-01-25 06:24:56
    Writing application         : mkvmerge v56.1.0 ('My Friend') 64-bit
    Writing library             : libebml v1.4.2 + libmatroska v1.6.4
    Attachments                 : CINEMANIAHD.png

    Video
    ID                          : 1
    Format                      : AVC
    Format/Info                 : Advanced Video Codec
    Format profile              : High@L4.1
    Format settings             : CABAC / 4 Ref Frames
    Format settings, CABAC      : Yes
    Format settings, Reference  : 4 frames
    Codec ID                    : V_MPEG4/ISO/AVC
    Duration                    : 2 h 35 min
    Bit rate mode               : Variable
    Bit rate                    : 25.8 Mb/s
    Maximum bit rate            : 36.0 Mb/s
    Width                       : 1 920 pixels
    Height                      : 1 080 pixels
    Display aspect ratio        : 16:9
    Frame rate mode             : Constant
    Frame rate                  : 23.976 (24000/1001) FPS
    Color space                 : YUV
    Chroma subsampling          : 4:2:0
    Bit depth                   : 8 bits
    Scan type                   : Progressive
    Bits/(Pixel*Frame)          : 0.520
    Stream size                 : 28.1 GiB (81%)
    Title                       : REMUX HD1080p [CinemaniaHDD]
    Default                     : Yes
    Forced                      : Yes

    Audio #1
    ID                          : 2
    Format                      : AC-3
    Format/Info                 : Audio Coding 3
    Commercial name             : Dolby Digital
    Codec ID                    : A_AC3
    Duration                    : 2 h 35 min
    Bit rate mode               : Constant
    Bit rate                    : 384 kb/s
    Channel(s)                  : 6 channels
    Channel layout              : L R C LFE Ls Rs
    Sampling rate               : 48.0 kHz
    Frame rate                  : 31.250 FPS (1536 SPF)
    Compression mode            : Lossy
    Stream size                 : 428 MiB (1%)
    Title                       : Español Latino AC3 [CinemaniaHDD]
    Language                    : Spanish
    Service kind                : Complete Main
    Default                     : Yes
    Forced                      : Yes

    Audio #2
    ID                          : 3
    Format                      : E-AC-3
    Format/Info                 : Enhanced AC-3
    Commercial name             : Dolby Digital Plus
    Format settings             : Dolby Surround EX
    Codec ID                    : A_EAC3
    Duration                    : 2 h 35 min
    Bit rate mode               : Constant
    Bit rate                    : 640 kb/s
    Channel(s)                  : 8 channels
    Channel layout              : L R C LFE Ls Rs Lb Rb
    Sampling rate               : 48.0 kHz
    Frame rate                  : 31.250 FPS (1536 SPF)
    Compression mode            : Lossy
    Stream size                 : 713 MiB (2%)
    Title                       : Español Latino EAC3 [CinemaniaHDD]
    Language                    : Spanish
    Service kind                : Complete Main
    Default                     : No
    Forced                      : No

    Audio #3
    ID                          : 4
    Format                      : DTS XLL
    Format/Info                 : Digital Theater Systems
    Commercial name             : DTS-HD Master Audio
    Codec ID                    : A_DTS
    Duration                    : 2 h 35 min
    Bit rate mode               : Variable
    Bit rate                    : 4 849 kb/s
    Channel(s)                  : 8 channels
    Channel layout              : C L R LFE Lb Rb Lss Rss
    Sampling rate               : 48.0 kHz
    Frame rate                  : 93.750 FPS (512 SPF)
    Bit depth                   : 24 bits
    Compression mode            : Lossless
    Stream size                 : 5.28 GiB (15%)
    Title                       : Ingles [CinemaniaHDD]
    Language                    : English
    Default                     : No
    Forced                      : No

    Text #1
    ID                          : 5
    Format                      : UTF-8
    Codec ID                    : S_TEXT/UTF8
    Codec ID/Info               : UTF-8 Plain Text
    Duration                    : 2 h 35 min
    Bit rate                    : 2 b/s
    Count of elements           : 100
    Stream size                 : 2.85 KiB (0%)
    Title                       : Forzados-SRT [CinemaniaHDD]
    Language                    : Spanish
    Default                     : Yes
    Forced                      : Yes

    Text #2
    ID                          : 6
    Format                      : UTF-8
    Codec ID                    : S_TEXT/UTF8
    Codec ID/Info               : UTF-8 Plain Text
    Duration                    : 2 h 35 min
    Bit rate                    : 42 b/s
    Count of elements           : 1645
    Stream size                 : 48.3 KiB (0%)
    Title                       : Español-SRT [CinemaniaHDD]
    Language                    : Spanish
    Default                     : No
    Forced                      : No

    Text #3
    ID                          : 7
    Format                      : PGS
    Muxing mode                 : zlib
    Codec ID                    : S_HDMV/PGS
    Codec ID/Info               : Picture based subtitle format used on BDs/HD-DVDs
    Duration                    : 2 h 35 min
    Bit rate                    : 35.1 kb/s
    Count of elements           : 4430
    Stream size                 : 39.0 MiB (0%)
    Title                       : Ingles [CinemaniaHDD]
    Language                    : English
    Default                     : No
    Forced                      : No

    Menu
    00:00:00.000                : Chapter 01
    00:06:43.194                : Chapter 02
    00:20:22.888                : Chapter 03
    00:31:11.703                : Chapter 04
    00:35:04.435                : Chapter 05
    00:43:01.412                : Chapter 06
    00:49:29.007                : Chapter 07
    00:55:50.096                : Chapter 08
    01:02:29.537                : Chapter 09
    01:07:56.530                : Chapter 10
    01:10:39.568                : Chapter 11
    01:18:58.275                : Chapter 12
    01:24:36.780                : Chapter 13
    01:29:56.516                : Chapter 14
    01:36:03.048                : Chapter 15
    01:42:47.578                : Chapter 16
    01:46:27.881                : Chapter 17
    01:51:51.162                : Chapter 18
    01:55:57.951                : Chapter 19
    02:01:46.132                : Chapter 20
    02:06:30.249                : Chapter 21
    02:11:41.894                : Chapter 22
    02:16:32.350                : Chapter 23
    02:23:10.665                : Chapter 24
    02:25:45.027                : Chapter 25
    02:27:56.492                : Chapter 26
    02:34:27.174                : Chapter 27

  • Peso: 34.5 GIB

Sinopsis

Descargar Eternals (2021) REMUX 1080p Latino. Hace millones de años, los seres cósmicos conocidos como los Celestiales comenzaron a experimentar genéticamente con los humanos. Su intención era crear individuos superpoderosos que hicieran únicamente el bien, pero algo salió mal y aparecieron los Desviantes, destruyendo y creando el caos a su paso. Ambas razas se han enfrentado en una eterna lucha de poder a lo largo de la historia. En medio de esta guerra, Ikaris y Sersi tratarán de vivir su propia historia de amor.

Español Latino EAC3 7.1 & AC3 5.1 – Ingles DTS-HD 7.1 BD

Ficha técnica

Video trailer de la película

Enlaces de descarga

Rip de Bluray

Descargar Eternals (2021) REMUX 1080p Latino




Aportes de DPeliculasHDmega la pass es:dpeliculashdmega.org Aportes de CinemaniaHD la pass es:cinemaniahdd.com

Películas relacionadas

descargar Eternals (2021) REMUX 1080p Latino Full 1080p 1080p gratis, Eternals (2021) REMUX 1080p Latino Full 1080p mega 1 link, Eternals (2021) REMUX 1080p Latino Full 1080p pelicula completa, descargar Eternals (2021) REMUX 1080p Latino Full 1080p gratis en mega.

Eternals (2021) REMUX 1080p Latino pelicula full hd, Eternals (2021) REMUX 1080p Latino mega latino, Eternals (2021) REMUX 1080p Latino 4k latino, Eternals (2021) REMUX 1080p Latino pelicula completa, Eternals (2021) REMUX 1080p Latino descargar gratis, descargar Eternals (2021) REMUX 1080p Latino pelicula latino, Eternals (2021) REMUX 1080p Latino 1 link mega, Eternals (2021) REMUX 1080p Latino 1 link google drive, Eternals (2021) REMUX 1080p Latino hd 1080p latino.
Comentarios 0