×

¿Problemas para descargar con Mozilla, EDGE? Deshabilita la opción "Abrir vinculos en una pestaña nueva" tal como lo muestra ésta imagen.

Estafadoras en oferta (2021) REMUX 1080p Latino

180 vistas

Información de Estafadoras en oferta (2021) REMUX 1080p Latino

Datos de la película

  • Calidad: Full 1080p
  • Audio: Español Latino AC3 5.1 WEB-DL - Ingles DTS 5.1 BLURAY
  • Subtitulos: Español Latino SRT- FORZADOS SRT
  • Resolución: 1920x1080p
  • Formato: MKV
  • Codec: H.264
  • Encoder: Melkor
  • Mediainfo: Clic para Mostrar Datos Ver
  • Estafadoras En Oferta (2021) REMUX 1080p Latino.mkv
    Format                      : Matroska
    Format version              : Version 4
    File size                   : 29.7 GiB
    Duration                    : 1 h 50 min
    Overall bit rate mode       : Variable
    Overall bit rate            : 38.4 Mb/s
    Movie name                  : Queenpins (2021) CinemaniaHDD.Net
    Encoded date                : UTC 2023-04-02 07:17:28
    Writing application         : mkvmerge v56.1.0 ('My Friend') 64-bit
    Writing library             : libebml v1.4.2 + libmatroska v1.6.4
    Attachments                 : CINEMANIAHD.png
    Site                        : CinemaniaHDD.Net
    Uploader                    : Melkor

    Video
    ID                          : 1
    ID in the original source m : 4113 (0x1011)
    Format                      : AVC
    Format/Info                 : Advanced Video Codec
    Format profile              : High@L4.1
    Format settings             : CABAC / 4 Ref Frames
    Format settings, CABAC      : Yes
    Format settings, Reference  : 4 frames
    Codec ID                    : V_MPEG4/ISO/AVC
    Duration                    : 1 h 50 min
    Bit rate mode               : Variable
    Bit rate                    : 34.4 Mb/s
    Maximum bit rate            : 36.0 Mb/s
    Width                       : 1 920 pixels
    Height                      : 1 080 pixels
    Display aspect ratio        : 16:9
    Frame rate mode             : Constant
    Frame rate                  : 24.000 FPS
    Color space                 : YUV
    Chroma subsampling          : 4:2:0
    Bit depth                   : 8 bits
    Scan type                   : Progressive
    Bits/(Pixel*Frame)          : 0.691
    Stream size                 : 26.6 GiB (90%)
    Title                       : REMUX HD1080p [CinemaniaHDD]
    Default                     : Yes
    Forced                      : Yes
    Original source medium      : Blu-ray

    Audio #1
    ID                          : 2
    Format                      : AC-3
    Format/Info                 : Audio Coding 3
    Commercial name             : Dolby Digital
    Codec ID                    : A_AC3
    Duration                    : 1 h 50 min
    Bit rate mode               : Constant
    Bit rate                    : 640 kb/s
    Channel(s)                  : 6 channels
    Channel layout              : L R C LFE Ls Rs
    Sampling rate               : 48.0 kHz
    Frame rate                  : 31.250 FPS (1536 SPF)
    Compression mode            : Lossy
    Stream size                 : 508 MiB (2%)
    Title                       : Español Latino [CinemaniaHDD]
    Language                    : Spanish
    Service kind                : Complete Main
    Default                     : Yes
    Forced                      : Yes

    Audio #2
    ID                          : 3
    ID in the original source m : 4353 (0x1101)
    Format                      : DTS XLL
    Format/Info                 : Digital Theater Systems
    Commercial name             : DTS-HD Master Audio
    Codec ID                    : A_DTS
    Duration                    : 1 h 50 min
    Bit rate mode               : Variable
    Bit rate                    : 3 369 kb/s
    Channel(s)                  : 6 channels
    Channel layout              : C L R Ls Rs LFE
    Sampling rate               : 48.0 kHz
    Frame rate                  : 93.750 FPS (512 SPF)
    Bit depth                   : 24 bits
    Compression mode            : Lossless
    Stream size                 : 2.61 GiB (9%)
    Title                       : Ingles [CinemaniaHDD]
    Language                    : English
    Default                     : No
    Forced                      : No
    Original source medium      : Blu-ray

    Text #1
    ID                          : 4
    Format                      : UTF-8
    Codec ID                    : S_TEXT/UTF8
    Codec ID/Info               : UTF-8 Plain Text
    Duration                    : 1 h 43 min
    Bit rate                    : 1 b/s
    Count of elements           : 30
    Stream size                 : 796 Bytes (0%)
    Title                       : Forzados-SRT [CinemaniaHDD]
    Language                    : Spanish
    Default                     : Yes
    Forced                      : Yes

    Text #2
    ID                          : 5
    Format                      : UTF-8
    Codec ID                    : S_TEXT/UTF8
    Codec ID/Info               : UTF-8 Plain Text
    Duration                    : 1 h 43 min
    Bit rate                    : 80 b/s
    Count of elements           : 1920
    Stream size                 : 61.4 KiB (0%)
    Title                       : Español-SRT [CinemaniaHDD]
    Language                    : Spanish
    Default                     : No
    Forced                      : No

    Text #3
    ID                          : 6
    Format                      : UTF-8
    Codec ID                    : S_TEXT/UTF8
    Codec ID/Info               : UTF-8 Plain Text
    Duration                    : 1 h 49 min
    Bit rate                    : 99 b/s
    Count of elements           : 2048
    Stream size                 : 80.2 KiB (0%)
    Title                       : Ingles [CinemaniaHDD]
    Language                    : English
    Default                     : No
    Forced                      : No

    Menu
    00:00:00.000                : Chapter 01
    00:05:04.291                : Chapter 02
    00:13:07.291                : Chapter 03
    00:20:54.083                : Chapter 04
    00:28:35.583                : Chapter 05
    00:36:56.208                : Chapter 06
    00:46:41.250                : Chapter 07
    00:54:33.791                : Chapter 08
    01:01:02.041                : Chapter 09
    01:08:39.958                : Chapter 10
    01:14:13.833                : Chapter 11
    01:19:16.208                : Chapter 12
    01:23:41.833                : Chapter 13
    01:29:26.500                : Chapter 14
    01:36:13.333                : Chapter 15
    01:43:58.416                : Chapter 16

  • Peso: 29.7 GiB

Sinopsis

Descargar Estafadoras en oferta (2021) REMUX 1080p Latino. La aburrida y frustrada ama de casa de los suburbios Connie y su mejor amigo JoJo, un vlogger con sueños, convierten un pasatiempo en una trampa de cupones falsos de varios millones de dólares. Después de enviar una carta al conglomerado detrás de una caja de cereal rancia y recibir una disculpa junto con docenas de obsequios, el dúo trama un esquema de club de cupones ilegal que estafa a millones de megacorporaciones y entrega ofertas a legiones de compañeros recortadores de cupones. . En el camino hacia el dominio total de los cupones, un desafortunado Oficial de Prevención de Pérdidas de la cadena de supermercados local une fuerzas con un determinado Inspector Postal de los EE. UU. En la persecución de estos “Queenpins” recién acuñados del crimen de cuello rosa.

Ficha técnica

Video trailer de la película

Enlaces de descarga

Rip de Bluray

Descargar Estafadoras en oferta (2021) REMUX 1080p Latino


Aportes de DPeliculasHDmega la pass es:dpeliculashdmega.org Aportes de CinemaniaHD la pass es:cinemaniahdd.com Aportes recientes:cinemaniahdd.net
Guardado en : Comedia , Crimen , Remux

Películas relacionadas

  • Cómo robar un millón (1966) REMUX 1080p Latino-CMHDD

    Cómo robar un millón (1966) REMUX 1080p Latino-CMHDD

    1966
    Cómo robar un millón (1966) REMUX 1080p Latino-CMHDD

    2h 3m 1966

    Descargar Cómo robar un millón (1966) REMUX 1080p Latino-CMHDD. El padre de Nicole, un legendario coleccionista...

    Director: William Wyler

    Género: Comedia

    Actores: Roger Tréville

  • Milagros Inesperados (1999) 1080p Latino-CMHDD

    Milagros Inesperados (1999) 1080p Latino-CMHDD

    1999
    Milagros Inesperados (1999) 1080p Latino-CMHDD

    3h 9m 1999

    Descargar Milagros Inesperados (1999) 1080p Latino-CMHDD. En el sur de los Estados Unidos, en plena Depresión,...

    Director: Susan Malerstein

    Género: Crimen

    Actores: William Sadler

descargar Estafadoras en oferta (2021) REMUX 1080p Latino Full 1080p 1080p gratis, Estafadoras en oferta (2021) REMUX 1080p Latino Full 1080p mega 1 link, Estafadoras en oferta (2021) REMUX 1080p Latino Full 1080p pelicula completa, descargar Estafadoras en oferta (2021) REMUX 1080p Latino Full 1080p gratis en mega.

Estafadoras en oferta (2021) REMUX 1080p Latino pelicula full hd, Estafadoras en oferta (2021) REMUX 1080p Latino mega latino, Estafadoras en oferta (2021) REMUX 1080p Latino 4k latino, Estafadoras en oferta (2021) REMUX 1080p Latino pelicula completa, Estafadoras en oferta (2021) REMUX 1080p Latino descargar gratis, descargar Estafadoras en oferta (2021) REMUX 1080p Latino pelicula latino, Estafadoras en oferta (2021) REMUX 1080p Latino 1 link mega, Estafadoras en oferta (2021) REMUX 1080p Latino 1 link google drive, Estafadoras en oferta (2021) REMUX 1080p Latino hd 1080p latino.
Comentarios 0