×

¿Problemas para descargar con Mozilla, EDGE? Deshabilita la opción "Abrir vinculos en una pestaña nueva" tal como lo muestra ésta imagen.

Estafadoras de Wall Street (2019) WEB-DL 1080p Latino

1.804 vistas

Información de Estafadoras de Wall Street (2019) WEB-DL 1080p Latino

Datos de la película

  • Calidad: WEBDL
  • Audio: Español Latino AC3 2.0 iTunes - Ingles AC3 5.1 iTunes
  • Subtitulos: Español Latino SRT- FORZADOS SRT
  • Resolución: 1912x796
  • Formato: MKV
  • Codec: H.264
  • Encoder: cinemaniahdd
  • Mediainfo: Clic para Mostrar Datos Ver
  • Estafadoras de Wall Street (2019) WEB-DL 1080p Latino.mkv
    Format                      : Matroska
    Format version              : Version 4
    File size                   : 3.97 GiB
    Duration                    : 1 h 49 min
    Overall bit rate            : 5 187 kb/s
    Movie name                  : Estafadoras de Wall Street (2019) - CinemaniaHDD.Net
    Encoded date                : UTC 2019-11-26 05:37:35
    Writing application         : mkvmerge v38.0.0 ('The Silent Type') 64-bit
    Writing library             : libebml v1.3.9 + libmatroska v1.5.2

    Video
    ID                          : 1
    Format                      : AVC
    Format/Info                 : Advanced Video Codec
    Format profile              : High@L4
    Format settings             : CABAC / 5 Ref Frames
    Format settings, CABAC      : Yes
    Format settings, ReFrames   : 5 frames
    Codec ID                    : V_MPEG4/ISO/AVC
    Duration                    : 1 h 49 min
    Bit rate                    : 4 545 kb/s
    Width                       : 1 912 pixels
    Height                      : 796 pixels
    Display aspect ratio        : 2.40:1
    Frame rate mode             : Constant
    Frame rate                  : 24.000 FPS
    Color space                 : YUV
    Chroma subsampling          : 4:2:0
    Bit depth                   : 8 bits
    Scan type                   : Progressive
    Bits/(Pixel*Frame)          : 0.124
    Stream size                 : 3.48 GiB (88%)
    Title                       : CinemaniaHDD
    Language                    : English
    Default                     : Yes
    Forced                      : No
    Color range                 : Limited
    Color primaries             : BT.709
    Transfer characteristics    : BT.709
    Matrix coefficients         : BT.709

    Audio #1
    ID                          : 2
    Format                      : AC-3
    Format/Info                 : Audio Coding 3
    Commercial name             : Dolby Digital
    Codec ID                    : A_AC3
    Duration                    : 1 h 49 min
    Bit rate mode               : Constant
    Bit rate                    : 256 kb/s
    Channel(s)                  : 2 channels
    Channel layout              : L R
    Sampling rate               : 48.0 kHz
    Frame rate                  : 31.250 FPS (1536 SPF)
    Bit depth                   : 16 bits
    Compression mode            : Lossy
    Stream size                 : 201 MiB (5%)
    Title                       : Español latino [CinemaniaHDD]
    Language                    : Spanish
    Service kind                : Complete Main
    Default                     : Yes
    Forced                      : No

    Audio #2
    ID                          : 3
    Format                      : AC-3
    Format/Info                 : Audio Coding 3
    Commercial name             : Dolby Digital
    Codec ID                    : A_AC3
    Duration                    : 1 h 49 min
    Bit rate mode               : Constant
    Bit rate                    : 384 kb/s
    Channel(s)                  : 6 channels
    Channel layout              : L R C LFE Ls Rs
    Sampling rate               : 48.0 kHz
    Frame rate                  : 31.250 FPS (1536 SPF)
    Bit depth                   : 16 bits
    Compression mode            : Lossy
    Stream size                 : 301 MiB (7%)
    Title                       : Inglés [CinemaniaHDD]
    Language                    : English
    Service kind                : Complete Main
    Default                     : No
    Forced                      : No

    Text #1
    ID                          : 4
    Format                      : UTF-8
    Codec ID                    : S_TEXT/UTF8
    Codec ID/Info               : UTF-8 Plain Text
    Duration                    : 1 h 40 min
    Bit rate                    : 0 b/s
    Count of elements           : 13
    Stream size                 : 384 Bytes (0%)
    Title                       : Forzados [CinemaniaHDD]
    Language                    : Spanish
    Default                     : Yes
    Forced                      : Yes

    Text #2
    ID                          : 5
    Format                      : UTF-8
    Codec ID                    : S_TEXT/UTF8
    Codec ID/Info               : UTF-8 Plain Text
    Duration                    : 1 h 43 min
    Bit rate                    : 60 b/s
    Count of elements           : 1658
    Stream size                 : 45.5 KiB (0%)
    Title                       : Español latino [CinemaniaHDD]
    Language                    : Spanish
    Default                     : No
    Forced                      : No

    Menu
    00:00:00.000                : en:1
    00:08:05.000                : en:2
    00:19:43.000                : en:3
    00:30:19.000                : en:4
    00:40:18.000                : en:5
    00:51:15.000                : en:6
    01:02:26.000                : en:7
    01:11:20.000                : en:8
    01:21:38.000                : en:9
    01:31:54.000                : en:10
    01:40:59.000                : en:11

     

  • Peso: 3.97 GiB

Sinopsis

Inspirado por el artículo viral de la revista New York Magazine, Hustlers sigue a un grupo de ex empleadas de un club de striptease que se unen para vengarse de sus clientes de Wall Street.

Ficha técnica

Video trailer de la película

Enlaces de descarga

Rip de Bluray

Descargar Estafadoras de Wall Street (2019) WEB-DL 1080p Latino




Aportes de DPeliculasHDmega la pass es:dpeliculashdmega.org Aportes de CinemaniaHD la pass es:cinemaniahdd.com
Guardado en : Comedia , Crimen , Drama

Películas relacionadas

  • M3GAN (2023) AMZN WEB-DL 4K UHD HDR Latino

    M3GAN (2023) AMZN WEB-DL 4K UHD HDR Latino

    2022
    M3GAN (2023) AMZN WEB-DL 4K UHD HDR Latino

    1h 42m 2022

    Descargar M3GAN (2023) AMZN WEB-DL 4K UHD HDR Latino. Cuando Gemma se convierte en la cuidadora de su...

    Director: Stephen W. Moore

    Género: 4K HDR

    Actores: Violet McGraw

  • M3GAN (2022) MA WEB-DL 1080p Latino

    M3GAN (2022) MA WEB-DL 1080p Latino

    2022
    M3GAN (2022) MA WEB-DL 1080p Latino

    1h 42m 2022

    Descargar M3GAN (2022) MA WEB-DL 1080p Latino. Cuando Gemma se convierte en la cuidadora de su sobrina...

    Director: Stephen W. Moore

    Género: Ciencia ficción

    Actores: Violet McGraw

  • Noche sin paz (2022) PLACEBO Full HD 1080p Latino

    Noche sin paz (2022) PLACEBO Full HD 1080p Latino

    2022
    Noche sin paz (2022) PLACEBO Full HD 1080p Latino

    1h 41m 2022

    Descargar Noche sin paz (2022) PLACEBO Full HD 1080p Latino. Cuando un equipo de mercenarios irrumpe...

    Director: Tyshana Hobson

    Género: Acción

    Actores: Yoon Cha-Lee

  • Noche sin paz (2022) HD 1080p Latino

    Noche sin paz (2022) HD 1080p Latino

    2022
    Noche sin paz (2022) HD 1080p Latino

    1h 41m 2022

    Descargar Noche sin paz (2022) HD 1080p Latino. Cuando un equipo de mercenarios irrumpe en Nochebuena...

    Director: Tyshana Hobson

    Género: Acción

    Actores: Yoon Cha-Lee

  • Noche sin paz (2022) REMUX 1080p Latino

    Noche sin paz (2022) REMUX 1080p Latino

    2022
    Noche sin paz (2022) REMUX 1080p Latino

    1h 41m 2022

    Descargar Noche sin paz (2022) REMUX 1080p Latino. Cuando un equipo de mercenarios irrumpe en Nochebuena...

    Director: Tyshana Hobson

    Género: Acción

    Actores: Yoon Cha-Lee

descargar Estafadoras de Wall Street (2019) WEB-DL 1080p Latino WEBDL 1080p gratis, Estafadoras de Wall Street (2019) WEB-DL 1080p Latino WEBDL mega 1 link, Estafadoras de Wall Street (2019) WEB-DL 1080p Latino WEBDL pelicula completa, descargar Estafadoras de Wall Street (2019) WEB-DL 1080p Latino WEBDL gratis en mega.

Estafadoras de Wall Street (2019) WEB-DL 1080p Latino pelicula full hd, Estafadoras de Wall Street (2019) WEB-DL 1080p Latino mega latino, Estafadoras de Wall Street (2019) WEB-DL 1080p Latino 4k latino, Estafadoras de Wall Street (2019) WEB-DL 1080p Latino pelicula completa, Estafadoras de Wall Street (2019) WEB-DL 1080p Latino descargar gratis, descargar Estafadoras de Wall Street (2019) WEB-DL 1080p Latino pelicula latino, Estafadoras de Wall Street (2019) WEB-DL 1080p Latino 1 link mega, Estafadoras de Wall Street (2019) WEB-DL 1080p Latino 1 link google drive, Estafadoras de Wall Street (2019) WEB-DL 1080p Latino hd 1080p latino.
Comentarios 4
  • elRuma - 26 noviembre, 2019

    y como se usa el ONEDRIVE??….

  • elRuma - 26 noviembre, 2019

    que pasa con los links???

    • CinemaniaHDD - 26 noviembre, 2019

      Holas, es xq an recibido muchas descargas las cuentas de acceso PUBLICO de googledrive, solo tienes que esperar ah que pase el tiempo de limitacion.
      O descarga de MEGA, y tambien esta la opcion de usuarioVIP donde descargas en un link de GD-privado.