×

¿Problemas para descargar con Mozilla, EDGE? Deshabilita la opción "Abrir vinculos en una pestaña nueva" tal como lo muestra ésta imagen.

Estados Unidos vs. Billie Holiday (2021) AMZN WebDL 1080p Latino

181 vistas

Información de Estados Unidos vs. Billie Holiday (2021) AMZN WebDL 1080p Latino

Datos de la película

  • Calidad: WEBDL
  • Audio: Se especifica abajo de la Sinopsis
  • Subtitulos: Español Latino SRT- FORZADOS SRT
  • Resolución: 1920x800p
  • Formato: MKV
  • Codec: H.264
  • Encoder: Melkor
  • Mediainfo: Clic para Mostrar Datos Ver
  • Estados Unidos vs. Billie Holiday (2021) AMZN WebDL 1080p Latino[CMHDD].mkv
    Format                      : Matroska
    Format version              : Version 4
    File size                   : 10.0 GiB
    Duration                    : 2 h 10 min
    Overall bit rate            : 11.0 Mb/s
    Movie name                  : The United States vs. Billie Holiday (2021) CinemaniaHDD.Net
    Encoded date                : UTC 2021-04-25 04:30:25
    Writing application         : mkvmerge v56.1.0 ('My Friend') 64-bit
    Writing library             : libebml v1.4.2 + libmatroska v1.6.4
    Attachments                 : CINEMANIAHD.png

    Video
    ID                          : 1
    Format                      : AVC
    Format/Info                 : Advanced Video Codec
    Format profile              : High@L4
    Format settings             : CABAC / 4 Ref Frames
    Format settings, CABAC      : Yes
    Format settings, Reference  : 4 frames
    Codec ID                    : V_MPEG4/ISO/AVC
    Duration                    : 2 h 10 min
    Bit rate mode               : Constant
    Bit rate                    : 9 085 kb/s
    Nominal bit rate            : 10 000 kb/s
    Width                       : 1 920 pixels
    Height                      : 800 pixels
    Display aspect ratio        : 2.40:1
    Frame rate mode             : Constant
    Frame rate                  : 23.976 (24000/1001) FPS
    Color space                 : YUV
    Chroma subsampling          : 4:2:0
    Bit depth                   : 8 bits
    Scan type                   : Progressive
    Bits/(Pixel*Frame)          : 0.247
    Stream size                 : 8.27 GiB (83%)
    Title                       : WEB HD1080p [CinemaniaHDD]
    Language                    : English
    Default                     : Yes
    Forced                      : No
    Color range                 : Limited
    Color primaries             : BT.709
    Transfer characteristics    : BT.709
    Matrix coefficients         : BT.709

    Audio #1
    ID                          : 2
    Format                      : E-AC-3
    Format/Info                 : Enhanced AC-3
    Commercial name             : Dolby Digital Plus
    Codec ID                    : A_EAC3
    Duration                    : 2 h 10 min
    Bit rate mode               : Constant
    Bit rate                    : 640 kb/s
    Channel(s)                  : 6 channels
    Channel layout              : L R C LFE Ls Rs
    Sampling rate               : 48.0 kHz
    Frame rate                  : 31.250 FPS (1536 SPF)
    Compression mode            : Lossy
    Stream size                 : 597 MiB (6%)
    Title                       : Español Latino [CinemaniaHDD]
    Language                    : Spanish
    Service kind                : Complete Main
    Default                     : Yes
    Forced                      : No

    Audio #2
    ID                          : 3
    Format                      : E-AC-3
    Format/Info                 : Enhanced AC-3
    Commercial name             : Dolby Digital Plus
    Codec ID                    : A_EAC3
    Duration                    : 2 h 10 min
    Bit rate mode               : Constant
    Bit rate                    : 640 kb/s
    Channel(s)                  : 6 channels
    Channel layout              : L R C LFE Ls Rs
    Sampling rate               : 48.0 kHz
    Frame rate                  : 31.250 FPS (1536 SPF)
    Compression mode            : Lossy
    Stream size                 : 597 MiB (6%)
    Title                       : Ingles [CinemaniaHDD]
    Language                    : English
    Service kind                : Complete Main
    Default                     : No
    Forced                      : No

    Audio #3
    ID                          : 4
    Format                      : AC-3
    Format/Info                 : Audio Coding 3
    Commercial name             : Dolby Digital
    Codec ID                    : A_AC3
    Duration                    : 2 h 10 min
    Bit rate mode               : Constant
    Bit rate                    : 640 kb/s
    Channel(s)                  : 6 channels
    Channel layout              : L R C LFE Ls Rs
    Sampling rate               : 48.0 kHz
    Frame rate                  : 31.250 FPS (1536 SPF)
    Compression mode            : Lossy
    Stream size                 : 597 MiB (6%)
    Title                       : Español Latino AC3 [CinemaniaHDD]
    Language                    : Spanish
    Service kind                : Complete Main
    Default                     : No
    Forced                      : No

    Text #1
    ID                          : 5
    Format                      : UTF-8
    Codec ID                    : S_TEXT/UTF8
    Codec ID/Info               : UTF-8 Plain Text
    Duration                    : 2 h 6 min
    Bit rate                    : 6 b/s
    Count of elements           : 227
    Stream size                 : 5.72 KiB (0%)
    Title                       : Forzados-SRT [CinemaniaHDD]
    Language                    : Spanish
    Default                     : Yes
    Forced                      : No

    Text #2
    ID                          : 6
    Format                      : UTF-8
    Codec ID                    : S_TEXT/UTF8
    Codec ID/Info               : UTF-8 Plain Text
    Duration                    : 2 h 10 min
    Bit rate                    : 61 b/s
    Count of elements           : 2028
    Stream size                 : 59.0 KiB (0%)
    Title                       : Español-SRT [CinemaniaHDD]
    Language                    : Spanish
    Default                     : No
    Forced                      : No

    Text #3
    ID                          : 7
    Format                      : UTF-8
    Codec ID                    : S_TEXT/UTF8
    Codec ID/Info               : UTF-8 Plain Text
    Duration                    : 2 h 9 min
    Bit rate                    : 60 b/s
    Count of elements           : 1908
    Stream size                 : 57.5 KiB (0%)
    Title                       : Ingles-SRT [CinemaniaHDD]
    Language                    : English
    Default                     : No
    Forced                      : No

  • Peso: 10.02 GiB

Sinopsis

Descargar Estados Unidos vs. Billie Holiday (2021) AMZN WebDL 1080p Latino. La legendaria Billie Holiday, una de las mejores intérpretes de jazz de todos los tiempos, pasó la mayor parte de su carrera siendo adorada por sus fans alrededor del globo. Todo mientras el Departamento Federal de Narcóticos de Estados Unidos la fijó como objetivo mediante una operación encubierta liderada por el Agente Federal Jimmy Fletcher, con quien Billie había tenido un tumultuoso romance.

Español Latino EAC3 & AC3 5.1 AMZN – Ingles EAC3 5.1 AMZN

Ficha técnica

Video trailer de la película

Enlaces de descarga

Rip de Bluray

Descargar Estados Unidos vs. Billie Holiday (2021) AMZN WebDL 1080p Latino




Aportes de DPeliculasHDmega la pass es:dpeliculashdmega.org Aportes de CinemaniaHD la pass es:cinemaniahdd.com
Guardado en : Drama , Historia , Música

Películas relacionadas

descargar Estados Unidos vs. Billie Holiday (2021) AMZN WebDL 1080p Latino WEBDL 1080p gratis, Estados Unidos vs. Billie Holiday (2021) AMZN WebDL 1080p Latino WEBDL mega 1 link, Estados Unidos vs. Billie Holiday (2021) AMZN WebDL 1080p Latino WEBDL pelicula completa, descargar Estados Unidos vs. Billie Holiday (2021) AMZN WebDL 1080p Latino WEBDL gratis en mega.

Estados Unidos vs. Billie Holiday (2021) AMZN WebDL 1080p Latino pelicula full hd, Estados Unidos vs. Billie Holiday (2021) AMZN WebDL 1080p Latino mega latino, Estados Unidos vs. Billie Holiday (2021) AMZN WebDL 1080p Latino 4k latino, Estados Unidos vs. Billie Holiday (2021) AMZN WebDL 1080p Latino pelicula completa, Estados Unidos vs. Billie Holiday (2021) AMZN WebDL 1080p Latino descargar gratis, descargar Estados Unidos vs. Billie Holiday (2021) AMZN WebDL 1080p Latino pelicula latino, Estados Unidos vs. Billie Holiday (2021) AMZN WebDL 1080p Latino 1 link mega, Estados Unidos vs. Billie Holiday (2021) AMZN WebDL 1080p Latino 1 link google drive, Estados Unidos vs. Billie Holiday (2021) AMZN WebDL 1080p Latino hd 1080p latino.
Comentarios 0