Estados Unidos vs. Billie Holiday (2021) REMUX 1080p Latino

33 vistas
1 estrella2 estrellas3 estrellas4 estrellas5 estrellas (1 votos, promedio: 5,00 de 5)
Cargando...

Información de Estados Unidos vs. Billie Holiday (2021) REMUX 1080p Latino

Datos de la película

  • Calidad: Full 1080p
  • Audio: Español Latino AC3 5.1 AMAZON - Ingles DTS 5.1 BLURAY
  • Subtitulos: Español Latino SRT- FORZADOS SRT
  • Resolución: 1920x1080p
  • Formato: MKV
  • Codec: H.264
  • Encoder: Melkor
  • Mediainfo: Clic para Mostrar Datos Ver
  • Estados Unidos vs. Billie Holiday (2021) REMUX 1080p Latino.mkv
    Format                      : Matroska
    Format version              : Version 4
    File size                   : 35.0 GiB
    Duration                    : 2 h 11 min
    Overall bit rate mode       : Variable
    Overall bit rate            : 38.2 Mb/s
    Movie name                  : The United States vs Billie Holiday (2021) CinemaniaHDD.Net
    Encoded date                : UTC 2021-05-14 04:27:51
    Writing application         : mkvmerge v56.1.0 ('My Friend') 64-bit
    Writing library             : libebml v1.4.2 + libmatroska v1.6.4
    Attachments                 : CINEMANIAHD.png

    Video
    ID                          : 1
    ID in the original source m : 4113 (0x1011)
    Format                      : AVC
    Format/Info                 : Advanced Video Codec
    Format profile              : High@L4.1
    Format settings             : CABAC / 4 Ref Frames
    Format settings, CABAC      : Yes
    Format settings, Reference  : 4 frames
    Codec ID                    : V_MPEG4/ISO/AVC
    Duration                    : 2 h 11 min
    Bit rate mode               : Variable
    Bit rate                    : 33.9 Mb/s
    Maximum bit rate            : 36.0 Mb/s
    Width                       : 1 920 pixels
    Height                      : 1 080 pixels
    Display aspect ratio        : 16:9
    Frame rate mode             : Constant
    Frame rate                  : 24.000 FPS
    Color space                 : YUV
    Chroma subsampling          : 4:2:0
    Bit depth                   : 8 bits
    Scan type                   : Progressive
    Bits/(Pixel*Frame)          : 0.681
    Stream size                 : 31.0 GiB (89%)
    Title                       : REMUX HD1080p [CinemaniaHDD]
    Language                    : English
    Default                     : Yes
    Forced                      : No
    Original source medium      : Blu-ray

    Audio #1
    ID                          : 2
    Format                      : AC-3
    Format/Info                 : Audio Coding 3
    Commercial name             : Dolby Digital
    Codec ID                    : A_AC3
    Duration                    : 2 h 11 min
    Bit rate mode               : Constant
    Bit rate                    : 640 kb/s
    Channel(s)                  : 6 channels
    Channel layout              : L R C LFE Ls Rs
    Sampling rate               : 48.0 kHz
    Frame rate                  : 31.250 FPS (1536 SPF)
    Compression mode            : Lossy
    Stream size                 : 600 MiB (2%)
    Title                       : Español Latino [CinemaniaHDD]
    Language                    : Spanish
    Service kind                : Complete Main
    Default                     : Yes
    Forced                      : No

    Audio #2
    ID                          : 3
    ID in the original source m : 4353 (0x1101)
    Format                      : DTS XLL
    Format/Info                 : Digital Theater Systems
    Commercial name             : DTS-HD Master Audio
    Codec ID                    : A_DTS
    Duration                    : 2 h 11 min
    Bit rate mode               : Variable
    Bit rate                    : 3 638 kb/s
    Channel(s)                  : 6 channels
    Channel layout              : C L R Ls Rs LFE
    Sampling rate               : 48.0 kHz
    Frame rate                  : 93.750 FPS (512 SPF)
    Bit depth                   : 24 bits
    Compression mode            : Lossless
    Stream size                 : 3.33 GiB (10%)
    Title                       : Ingles [CinemaniaHDD]
    Language                    : English
    Default                     : No
    Forced                      : No
    Original source medium      : Blu-ray

    Text #1
    ID                          : 4
    Format                      : UTF-8
    Codec ID                    : S_TEXT/UTF8
    Codec ID/Info               : UTF-8 Plain Text
    Duration                    : 2 h 6 min
    Bit rate                    : 6 b/s
    Count of elements           : 227
    Stream size                 : 5.72 KiB (0%)
    Title                       : Forzados-SRT [CinemaniaHDD]
    Language                    : Spanish
    Default                     : Yes
    Forced                      : No

    Text #2
    ID                          : 5
    Format                      : UTF-8
    Codec ID                    : S_TEXT/UTF8
    Codec ID/Info               : UTF-8 Plain Text
    Duration                    : 2 h 9 min
    Bit rate                    : 52 b/s
    Count of elements           : 1703
    Stream size                 : 49.9 KiB (0%)
    Title                       : Español-SRT [CinemaniaHDD]
    Language                    : Spanish
    Default                     : No
    Forced                      : No

    Text #3
    ID                          : 6
    ID in the original source m : 4610 (0x1202)
    Format                      : PGS
    Muxing mode                 : zlib
    Codec ID                    : S_HDMV/PGS
    Codec ID/Info               : Picture based subtitle format used on BDs/HD-DVDs
    Duration                    : 2 h 2 min
    Bit rate                    : 952 b/s
    Count of elements           : 72
    Stream size                 : 855 KiB (0%)
    Title                       : Ingles-PGS [CinemaniaHDD]
    Language                    : English
    Default                     : No
    Forced                      : No
    Original source medium      : Blu-ray

    Menu
    00:00:00.000                : Chapter 01
    00:07:17.416                : Chapter 02
    00:13:32.416                : Chapter 03
    00:21:35.875                : Chapter 04
    00:30:06.583                : Chapter 05
    00:38:01.750                : Chapter 06
    00:44:00.500                : Chapter 07
    00:51:44.791                : Chapter 08
    00:58:05.000                : Chapter 09
    01:04:36.375                : Chapter 10
    01:11:14.708                : Chapter 11
    01:21:23.541                : Chapter 12
    01:29:34.541                : Chapter 13
    01:38:11.500                : Chapter 14
    01:48:49.958                : Chapter 15
    02:01:34.041                : Chapter 16

  • Peso: 35.0 GiB

Sinopsis

Descargar Estados Unidos vs. Billie Holiday (2021) REMUX 1080p Latino. La legendaria Billie Holiday, una de las mejores intérpretes de jazz de todos los tiempos, pasó la mayor parte de su carrera siendo adorada por sus fans alrededor del globo. Todo mientras el Departamento Federal de Narcóticos de Estados Unidos la fijó como objetivo mediante una operación encubierta liderada por el Agente Federal Jimmy Fletcher, con quien Billie había tenido un tumultuoso romance.

Ficha técnica

Video trailer de la película

Enlaces de descarga

Rip de Bluray

Descargar Estados Unidos vs. Billie Holiday (2021) REMUX 1080p Latino




Aportes de DPeliculasHDmega la pass es:dpeliculashdmega.org Aportes de CinemaniaHD la pass es:cinemaniahdd.com
Guardado en : Drama , Historia , Música , Remux

Películas relacionadas

  • Nadie (2021) REMUX 1080p Latino

    Nadie (2021) REMUX 1080p Latino

    2021
    Nadie (2021) REMUX 1080p Latino

    5.0 1h 32m 2021

    Descargar Nadie (2021) REMUX 1080p Latino. Hutch Mansell, un padre de familia que aguanta con resignación...

    Director: Ilya Naishuller

    Género: Acción

    Actores: Yulia Guzhva

  • Locked Down (2021) HMAX WEB-DL 1080p Latino

    Locked Down (2021) HMAX WEB-DL 1080p Latino

    2021
    Locked Down (2021) HMAX WEB-DL 1080p Latino

    5.0 1h 58m 2021

    Linda y Paxton son una pareja con problemas pero que deciden pausar su separación con un objetivo: aprovecharse...

    Director: Sam Barry-Parker

    Género: Comedia

    Actores: Tallulah Greive

  • Annabelle 3: Viene A Casa (2019) REMUX 1080p Latino

    Annabelle 3: Viene A Casa (2019) REMUX 1080p Latino

    2019
    Annabelle 3: Viene A Casa (2019) REMUX 1080p Latino

    5.0 1h 46m 2019

    Descargar Annabelle 3 Vuelve a casa (2019) REMUX 1080p Latino. Annabelle Vuelve a Casa es la tercera...

    Director: Gary Dauberman

    Género: Misterio

    Actores: Vera Farmiga

  • Annabelle 2: La Creación (2017) REMUX 1080p Latino

    Annabelle 2: La Creación (2017) REMUX 1080p Latino

    2017
    Annabelle 2: La Creación (2017) REMUX 1080p Latino

    3.0 1h 49m 2017

    Descargar Annabelle 2: La Creación (2017) REMUX 1080p Latino. Varios años después del trágico fallecimiento...

    Director: Jan McWilliams

    Género: Misterio

    Actores: Ward Horton

Estados Unidos vs. Billie Holiday (2021) REMUX 1080p Latino pelicula full hd, Estados Unidos vs. Billie Holiday (2021) REMUX 1080p Latino mega latino, Estados Unidos vs. Billie Holiday (2021) REMUX 1080p Latino 4k latino, Estados Unidos vs. Billie Holiday (2021) REMUX 1080p Latino pelicula completa, Estados Unidos vs. Billie Holiday (2021) REMUX 1080p Latino descargar gratis, descargar Estados Unidos vs. Billie Holiday (2021) REMUX 1080p Latino pelicula latino, Estados Unidos vs. Billie Holiday (2021) REMUX 1080p Latino 1 link mega, Estados Unidos vs. Billie Holiday (2021) REMUX 1080p Latino 1 link google drive, Estados Unidos vs. Billie Holiday (2021) REMUX 1080p Latino hd 1080p latino.
Comentarios 0