Estados Unidos vs. Billie Holiday (2021) HD 1080p Latino

33 vistas
1 estrella2 estrellas3 estrellas4 estrellas5 estrellas (Ninguna valoración todavía)
Cargando...

Información de Estados Unidos vs. Billie Holiday (2021) HD 1080p Latino

Datos de la película

  • Calidad: 1080p
  • Audio: Español Latino AC3 5.1 AMAZON - Ingles AC3 5.1 BLURAY
  • Subtitulos: Español Latino SRT- FORZADOS SRT
  • Resolución: 1920x804p
  • Formato: MKV
  • Codec: H.264
  • Encoder: Melkor
  • Mediainfo: Clic para Mostrar Datos Ver
  • Estados Unidos vs. Billie Holiday (2021) HD 1080p Latino.mkv
    Format                      : Matroska
    Format version              : Version 4
    File size                   : 4.14 GiB
    Duration                    : 2 h 11 min
    Overall bit rate            : 4 521 kb/s
    Movie name                  : The United States vs Billie Holiday (2021) CinemaniaHDD.Net
    Encoded date                : UTC 2021-05-14 04:37:18
    Writing application         : mkvmerge v56.1.0 ('My Friend') 64-bit
    Writing library             : libebml v1.4.2 + libmatroska v1.6.4
    Attachments                 : CINEMANIAHD.png

    Video
    ID                          : 1
    Format                      : AVC
    Format/Info                 : Advanced Video Codec
    Format profile              : High@L4.1
    Format settings             : CABAC / 5 Ref Frames
    Format settings, CABAC      : Yes
    Format settings, Reference  : 5 frames
    Codec ID                    : V_MPEG4/ISO/AVC
    Duration                    : 2 h 11 min
    Bit rate                    : 3 500 kb/s
    Width                       : 1 920 pixels
    Height                      : 804 pixels
    Display aspect ratio        : 2.40:1
    Frame rate mode             : Constant
    Frame rate                  : 24.000 FPS
    Color space                 : YUV
    Chroma subsampling          : 4:2:0
    Bit depth                   : 8 bits
    Scan type                   : Progressive
    Bits/(Pixel*Frame)          : 0.094
    Stream size                 : 3.14 GiB (76%)
    Title                       : HD1080p [CinemaniaHDD]
    Writing library             : x264 core 157 r2935 545de2f
    Encoding settings           : cabac=1 / ref=5 / deblock=1:-2:-2 / analyse=0x3:0x133 / me=umh / subme=9 / psy=1 / psy_rd=1.00:0.25 / mixed_ref=1 / me_range=16 / chroma_me=1 / trellis=2 / 8x8dct=1 / cqm=0 / deadzone=6,6 / fast_pskip=1 / chroma_qp_offset=-4 / threads=24 / lookahead_threads=2 / sliced_threads=0 / nr=0 / decimate=0 / interlaced=0 / bluray_compat=0 / constrained_intra=0 / bframes=3 / b_pyramid=2 / b_adapt=2 / b_bias=0 / direct=3 / weightb=1 / open_gop=0 / weightp=2 / keyint=240 / keyint_min=24 / scenecut=40 / intra_refresh=0 / rc_lookahead=60 / rc=abr / mbtree=1 / bitrate=3500 / ratetol=1.0 / qcomp=0.80 / qpmin=0 / qpmax=69 / qpstep=4 / vbv_maxrate=62500 / vbv_bufsize=78125 / nal_hrd=none / filler=0 / ip_ratio=1.10 / aq=1:0.50
    Default                     : Yes
    Forced                      : No
    Color range                 : Limited
    Color primaries             : BT.709
    Transfer characteristics    : BT.709
    Matrix coefficients         : BT.709

    Audio #1
    ID                          : 2
    Format                      : AC-3
    Format/Info                 : Audio Coding 3
    Commercial name             : Dolby Digital
    Codec ID                    : A_AC3
    Duration                    : 2 h 11 min
    Bit rate mode               : Constant
    Bit rate                    : 640 kb/s
    Channel(s)                  : 6 channels
    Channel layout              : L R C LFE Ls Rs
    Sampling rate               : 48.0 kHz
    Frame rate                  : 31.250 FPS (1536 SPF)
    Compression mode            : Lossy
    Delay relative to video     : -5 ms
    Stream size                 : 600 MiB (14%)
    Title                       : Español Latino [CinemaniaHDD]
    Language                    : Spanish
    Service kind                : Complete Main
    Default                     : Yes
    Forced                      : No

    Audio #2
    ID                          : 3
    Format                      : AC-3
    Format/Info                 : Audio Coding 3
    Commercial name             : Dolby Digital
    Codec ID                    : A_AC3
    Duration                    : 2 h 11 min
    Bit rate mode               : Constant
    Bit rate                    : 448 kb/s
    Channel(s)                  : 6 channels
    Channel layout              : L R C LFE Ls Rs
    Sampling rate               : 48.0 kHz
    Frame rate                  : 31.250 FPS (1536 SPF)
    Compression mode            : Lossy
    Delay relative to video     : -5 ms
    Stream size                 : 420 MiB (10%)
    Title                       : Ingles [CinemaniaHDD]
    Language                    : English
    Service kind                : Complete Main
    Default                     : No
    Forced                      : No

    Text #1
    ID                          : 4
    Format                      : UTF-8
    Codec ID                    : S_TEXT/UTF8
    Codec ID/Info               : UTF-8 Plain Text
    Duration                    : 2 h 6 min
    Bit rate                    : 6 b/s
    Count of elements           : 227
    Stream size                 : 5.72 KiB (0%)
    Title                       : Forzados-SRT [CinemaniaHDD]
    Language                    : Spanish
    Default                     : Yes
    Forced                      : No

    Text #2
    ID                          : 5
    Format                      : UTF-8
    Codec ID                    : S_TEXT/UTF8
    Codec ID/Info               : UTF-8 Plain Text
    Duration                    : 2 h 9 min
    Bit rate                    : 52 b/s
    Count of elements           : 1703
    Stream size                 : 49.9 KiB (0%)
    Title                       : Español-SRT [CinemaniaHDD]
    Language                    : Spanish
    Default                     : No
    Forced                      : No

    Text #3
    ID                          : 6
    Format                      : UTF-8
    Codec ID                    : S_TEXT/UTF8
    Codec ID/Info               : UTF-8 Plain Text
    Duration                    : 2 h 9 min
    Bit rate                    : 65 b/s
    Count of elements           : 1901
    Stream size                 : 61.9 KiB (0%)
    Title                       : Ingles-SRT [CinemaniaHDD]
    Language                    : English
    Default                     : No
    Forced                      : No

    Menu
    00:00:00.000                : Chapter 01
    00:07:17.416                : Chapter 02
    00:13:32.416                : Chapter 03
    00:21:35.875                : Chapter 04
    00:30:06.583                : Chapter 05
    00:38:01.750                : Chapter 06
    00:44:00.500                : Chapter 07
    00:51:44.791                : Chapter 08
    00:58:05.000                : Chapter 09
    01:04:36.375                : Chapter 10
    01:11:14.708                : Chapter 11
    01:21:23.541                : Chapter 12
    01:29:34.541                : Chapter 13
    01:38:11.500                : Chapter 14
    01:48:49.958                : Chapter 15
    02:01:34.041                : Chapter 16

  • Peso: 4.14 GiB

Sinopsis

Descargar Estados Unidos vs. Billie Holiday (2021) HD 1080p Latino. La legendaria Billie Holiday, una de las mejores intérpretes de jazz de todos los tiempos, pasó la mayor parte de su carrera siendo adorada por sus fans alrededor del globo. Todo mientras el Departamento Federal de Narcóticos de Estados Unidos la fijó como objetivo mediante una operación encubierta liderada por el Agente Federal Jimmy Fletcher, con quien Billie había tenido un tumultuoso romance.

Ficha técnica

Video trailer de la película

Enlaces de descarga

Rip de Bluray

Descargar Estados Unidos vs. Billie Holiday (2021) HD 1080p Latino




Aportes de DPeliculasHDmega la pass es:dpeliculashdmega.org Aportes de CinemaniaHD la pass es:cinemaniahdd.com
Guardado en : Drama , HD 1080p , Historia , Música

Películas relacionadas

  • Locked Down (2021) HMAX WEB-DL 1080p Latino

    Locked Down (2021) HMAX WEB-DL 1080p Latino

    2021
    Locked Down (2021) HMAX WEB-DL 1080p Latino

    5.0 1h 58m 2021

    Linda y Paxton son una pareja con problemas pero que deciden pausar su separación con un objetivo: aprovecharse...

    Director: Sam Barry-Parker

    Género: Comedia

    Actores: Tallulah Greive

  • Ruega por nosotros (2021) HD 1080p Latino

    Ruega por nosotros (2021) HD 1080p Latino

    2021
    Ruega por nosotros (2021) HD 1080p Latino

    5.0 1h 39m 2021

    Descargar Ruega por nosotros (2021) HD 1080p Latino. Se centra en un periodista caído en desgracia que...

    Director: Evan Spiliotopoulos

    Género: HD 1080p

    Actores: William Sadler

Estados Unidos vs. Billie Holiday (2021) HD 1080p Latino pelicula full hd, Estados Unidos vs. Billie Holiday (2021) HD 1080p Latino mega latino, Estados Unidos vs. Billie Holiday (2021) HD 1080p Latino 4k latino, Estados Unidos vs. Billie Holiday (2021) HD 1080p Latino pelicula completa, Estados Unidos vs. Billie Holiday (2021) HD 1080p Latino descargar gratis, descargar Estados Unidos vs. Billie Holiday (2021) HD 1080p Latino pelicula latino, Estados Unidos vs. Billie Holiday (2021) HD 1080p Latino 1 link mega, Estados Unidos vs. Billie Holiday (2021) HD 1080p Latino 1 link google drive, Estados Unidos vs. Billie Holiday (2021) HD 1080p Latino hd 1080p latino.
Comentarios 0