×

¿Problemas para descargar con Mozilla, EDGE? Deshabilita la opción "Abrir vinculos en una pestaña nueva" tal como lo muestra ésta imagen.

Estacion Zombie 2: Peninsula (2020) WEB 1080p Latino-CMHDD

405 vistas

Información de Estacion Zombie 2: Peninsula (2020) WEB 1080p Latino-CMHDD

Datos de la película

  • Calidad: WEBDL
  • Audio: Se especifica abajo de la Sinopsis
  • Subtitulos: Español Latino SRT- FORZADOS SRT
  • Resolución: 1920x1080p
  • Formato: MKV
  • Codec: H.264
  • Encoder: Dracarys
  • Mediainfo: Clic para Mostrar Datos Ver
  • Estacion Zombie 2 (2020) Web 1080p Latino.mkv
    Format                      : Matroska
    Format version              : Version 4
    File size                   : 4.52 GiB
    Duration                    : 1 h 55 min
    Overall bit rate            : 5 591 kb/s
    Movie name                  : Train To Busan 2 Peninsula (2020) CinemaniaHDD.Net
    Encoded date                : UTC 2020-12-21 19:09:42
    Writing application         : mkvmerge v51.0.0 ('I Wish') 64-bit
    Writing library             : libebml v1.4.0 + libmatroska v1.6.2
    Attachments                 : CINEMANIAHD.png

    Video
    ID                          : 1
    Format                      : AVC
    Format/Info                 : Advanced Video Codec
    Format profile              : High@L4
    Format settings             : CABAC / 2 Ref Frames
    Format settings, CABAC      : Yes
    Format settings, Reference  : 2 frames
    Codec ID                    : V_MPEG4/ISO/AVC
    Duration                    : 1 h 55 min
    Bit rate                    : 4 757 kb/s
    Width                       : 1 920 pixels
    Height                      : 1 080 pixels
    Display aspect ratio        : 16:9
    Frame rate mode             : Constant
    Frame rate                  : 23.976 (24000/1001) FPS
    Color space                 : YUV
    Chroma subsampling          : 4:2:0
    Bit depth                   : 8 bits
    Scan type                   : Progressive
    Bits/(Pixel*Frame)          : 0.096
    Stream size                 : 3.85 GiB (85%)
    Title                       : WEB HD1080p [CinemaniaHDD]
    Writing library             : x264 core 155 r2901 7d0ff22
    Language                    : Korean
    Default                     : Yes
    Forced                      : No
    Color range                 : Limited
    Color primaries             : BT.709
    Transfer characteristics    : BT.709
    Matrix coefficients         : BT.709

    Audio #1
    ID                          : 2
    Format                      : AC-3
    Format/Info                 : Audio Coding 3
    Commercial name             : Dolby Digital
    Codec ID                    : A_AC3
    Duration                    : 1 h 55 min
    Bit rate mode               : Constant
    Bit rate                    : 448 kb/s
    Channel(s)                  : 2 channels
    Channel layout              : L R
    Sampling rate               : 48.0 kHz
    Frame rate                  : 31.250 FPS (1536 SPF)
    Compression mode            : Lossy
    Delay relative to video     : 20 ms
    Stream size                 : 371 MiB (8%)
    Title                       : Español Latino [CinemaniaHDD]
    Language                    : Spanish
    Service kind                : Complete Main
    Default                     : Yes
    Forced                      : Yes

    Audio #2
    ID                          : 3
    Format                      : AC-3
    Format/Info                 : Audio Coding 3
    Commercial name             : Dolby Digital
    Codec ID                    : A_AC3
    Duration                    : 1 h 55 min
    Bit rate mode               : Constant
    Bit rate                    : 384 kb/s
    Channel(s)                  : 6 channels
    Channel layout              : L R C LFE Ls Rs
    Sampling rate               : 48.0 kHz
    Frame rate                  : 31.250 FPS (1536 SPF)
    Compression mode            : Lossy
    Stream size                 : 318 MiB (7%)
    Title                       : Coreano [CinemaniaHDD]
    Language                    : English
    Service kind                : Complete Main
    Default                     : No
    Forced                      : No

    Text #1
    ID                          : 4
    Format                      : UTF-8
    Codec ID                    : S_TEXT/UTF8
    Codec ID/Info               : UTF-8 Plain Text
    Duration                    : 27 min 24 s
    Bit rate                    : 0 b/s
    Count of elements           : 4
    Stream size                 : 114 Bytes (0%)
    Title                       : Forzados-SRT [CinemaniaHDD]
    Language                    : Spanish
    Default                     : Yes
    Forced                      : No

    Text #2
    ID                          : 5
    Format                      : UTF-8
    Codec ID                    : S_TEXT/UTF8
    Codec ID/Info               : UTF-8 Plain Text
    Duration                    : 1 h 50 min
    Bit rate                    : 34 b/s
    Count of elements           : 1001
    Stream size                 : 28.2 KiB (0%)
    Title                       : Español-SRT [CinemaniaHDD]
    Language                    : Spanish
    Default                     : No
    Forced                      : No

    Text #3
    ID                          : 6
    Format                      : UTF-8
    Codec ID                    : S_TEXT/UTF8
    Codec ID/Info               : UTF-8 Plain Text
    Duration                    : 1 h 49 min
    Bit rate                    : 30 b/s
    Count of elements           : 1011
    Stream size                 : 24.2 KiB (0%)
    Title                       : Ingles-SRT [CinemaniaHDD]
    Language                    : English
    Default                     : No
    Forced                      : No

  • Peso: 4.16 GiB

Sinopsis

Descargar Estacion Zombie 2: Peninsula (2020) WEB 1080p Latino-CMHDD. Después de que la infección que se extendió hace 4 años, solo algunas partes de Corea del Sur permanecen resguardadas, aunque la Península de Busan es la única parte en donde pueden buscar refugio los coreanos, muchos aún mantienen la esperanza de ser rescatados por ayuda internacional.

Español Latino AC3 2.0 – Coreano: AC3 5-1

Ficha técnica

Video trailer de la película

Enlaces de descarga

Rip de Bluray

Descargar Estacion Zombie 2: Peninsula (2020) WEB 1080p Latino-CMHDD




Aportes de DPeliculasHDmega la pass es:dpeliculashdmega.org Aportes de CinemaniaHD la pass es:cinemaniahdd.com
Guardado en : Acción , Suspenso , Terror

Películas relacionadas

descargar Estacion Zombie 2: Peninsula (2020) WEB 1080p Latino-CMHDD WEBDL 1080p gratis, Estacion Zombie 2: Peninsula (2020) WEB 1080p Latino-CMHDD WEBDL mega 1 link, Estacion Zombie 2: Peninsula (2020) WEB 1080p Latino-CMHDD WEBDL pelicula completa, descargar Estacion Zombie 2: Peninsula (2020) WEB 1080p Latino-CMHDD WEBDL gratis en mega.

Estacion Zombie 2: Peninsula (2020) WEB 1080p Latino-CMHDD pelicula full hd, Estacion Zombie 2: Peninsula (2020) WEB 1080p Latino-CMHDD mega latino, Estacion Zombie 2: Peninsula (2020) WEB 1080p Latino-CMHDD 4k latino, Estacion Zombie 2: Peninsula (2020) WEB 1080p Latino-CMHDD pelicula completa, Estacion Zombie 2: Peninsula (2020) WEB 1080p Latino-CMHDD descargar gratis, descargar Estacion Zombie 2: Peninsula (2020) WEB 1080p Latino-CMHDD pelicula latino, Estacion Zombie 2: Peninsula (2020) WEB 1080p Latino-CMHDD 1 link mega, Estacion Zombie 2: Peninsula (2020) WEB 1080p Latino-CMHDD 1 link google drive, Estacion Zombie 2: Peninsula (2020) WEB 1080p Latino-CMHDD hd 1080p latino.
Comentarios 1
  • John Connor - 30 septiembre, 2020

    No le hace honor a la primera parte… es así como arruinan una buena pelicula.