Espiritus Oscuros (2021) WEB-DL 4K UHD HDR Latino

627 vistas

Información de Espiritus Oscuros (2021) WEB-DL 4K UHD HDR Latino

Datos de la película

  • Calidad: WEBDL
  • Audio: Español Latino AC3 5.1 BLURAY - Ingles DTS 5.1 BLURAY
  • Subtitulos: Español Latino SRT- FORZADOS SRT
  • Resolución: 3840x2072p
  • Formato: MKV
  • Codec: HEVC
  • Encoder: Melkor
  • Mediainfo: Clic para Mostrar Datos Ver
  • Espiritus Oscuros (2021) REPACK WEB UHD HDR Latino.mkv
    Format                      : Matroska
    Format version              : Version 4
    File size                   : 11.5 GiB
    Duration                    : 1 h 39 min
    Overall bit rate            : 16.5 Mb/s
    Movie name                  : Antlers (2021) CinemaniaHDD.Net
    Encoded date                : UTC 2022-01-27 07:06:24
    Writing application         : mkvmerge v56.1.0 ('My Friend') 64-bit
    Writing library             : libebml v1.4.2 + libmatroska v1.6.4
    Attachments                 : CINEMANIAHD.png

    Video
    ID                          : 1
    Format                      : HEVC
    Format/Info                 : High Efficiency Video Coding
    Format profile              : Main 10@L5@High
    HDR format                  : SMPTE ST 2086, HDR10 compatible
    Codec ID                    : V_MPEGH/ISO/HEVC
    Duration                    : 1 h 39 min
    Bit rate                    : 14.3 Mb/s
    Width                       : 3 840 pixels
    Height                      : 2 072 pixels
    Display aspect ratio        : 1.85:1
    Frame rate mode             : Constant
    Frame rate                  : 23.976 (24000/1001) FPS
    Color space                 : YUV
    Chroma subsampling          : 4:2:0 (Type 2)
    Bit depth                   : 10 bits
    Bits/(Pixel*Frame)          : 0.075
    Stream size                 : 9.96 GiB (87%)
    Title                       : Web 2160p HDR [CinemaniaHDD]
    Default                     : Yes
    Forced                      : No
    Color range                 : Limited
    Color primaries             : BT.2020
    Transfer characteristics    : PQ
    Matrix coefficients         : BT.2020 non-constant
    Mastering display color pri : BT.2020
    Mastering display luminance : min: 0.0050 cd/m2, max: 1000 cd/m2
    Maximum Content Light Level : 333 cd/m2
    Maximum Frame-Average Light : 158 cd/m2

    Audio #1
    ID                          : 2
    ID in the original source m : 4355 (0x1103)
    Format                      : AC-3
    Format/Info                 : Audio Coding 3
    Commercial name             : Dolby Digital
    Codec ID                    : A_AC3
    Duration                    : 1 h 39 min
    Bit rate mode               : Constant
    Bit rate                    : 640 kb/s
    Channel(s)                  : 6 channels
    Channel layout              : L R C LFE Ls Rs
    Sampling rate               : 48.0 kHz
    Frame rate                  : 31.250 FPS (1536 SPF)
    Compression mode            : Lossy
    Delay relative to video     : 2 s 5 ms
    Stream size                 : 455 MiB (4%)
    Title                       : Español Latino [CinemaniaHDD]
    Language                    : Spanish
    Service kind                : Complete Main
    Default                     : Yes
    Forced                      : Yes
    Original source medium      : Blu-ray

    Audio #2
    ID                          : 3
    Format                      : DTS
    Format/Info                 : Digital Theater Systems
    Codec ID                    : A_DTS
    Duration                    : 1 h 39 min
    Bit rate mode               : Constant
    Bit rate                    : 1 509 kb/s
    Channel(s)                  : 6 channels
    Channel layout              : C L R Ls Rs LFE
    Sampling rate               : 48.0 kHz
    Frame rate                  : 93.750 FPS (512 SPF)
    Bit depth                   : 24 bits
    Compression mode            : Lossy
    Delay relative to video     : 1 s 988 ms
    Stream size                 : 1.05 GiB (9%)
    Title                       : Ingles [CinemaniaHDD]
    Language                    : English
    Default                     : No
    Forced                      : No

    Text #1
    ID                          : 4
    Format                      : UTF-8
    Codec ID                    : S_TEXT/UTF8
    Codec ID/Info               : UTF-8 Plain Text
    Duration                    : 37 min 20 s
    Bit rate                    : 1 b/s
    Count of elements           : 9
    Stream size                 : 307 Bytes (0%)
    Title                       : Forzados-SRT [CinemaniaHDD]
    Language                    : Spanish
    Default                     : Yes
    Forced                      : Yes

    Text #2
    ID                          : 5
    Format                      : UTF-8
    Codec ID                    : S_TEXT/UTF8
    Codec ID/Info               : UTF-8 Plain Text
    Duration                    : 1 h 38 min
    Bit rate                    : 26 b/s
    Count of elements           : 667
    Stream size                 : 18.9 KiB (0%)
    Title                       : Español-SRT [CinemaniaHDD]
    Language                    : Spanish
    Default                     : No
    Forced                      : No

    Text #3
    ID                          : 6
    Format                      : UTF-8
    Codec ID                    : S_TEXT/UTF8
    Codec ID/Info               : UTF-8 Plain Text
    Duration                    : 1 h 31 min
    Bit rate                    : 28 b/s
    Count of elements           : 681
    Stream size                 : 19.2 KiB (0%)
    Title                       : Ingles-SRT [CinemaniaHDD]
    Language                    : English
    Default                     : No
    Forced                      : No

    Menu
    00:00:00.000                : Chapter 01
    00:07:29.157                : Chapter 02
    00:10:09.233                : Chapter 03
    00:16:25.609                : Chapter 04
    00:20:36.652                : Chapter 05
    00:25:35.450                : Chapter 06
    00:30:32.497                : Chapter 07
    00:35:56.779                : Chapter 08
    00:38:08.869                : Chapter 09
    00:42:57.074                : Chapter 10
    00:47:30.347                : Chapter 11
    00:51:08.315                : Chapter 12
    00:55:35.540                : Chapter 13
    01:00:02.348                : Chapter 14
    01:07:38.429                : Chapter 15
    01:14:37.890                : Chapter 16
    01:17:53.043                : Chapter 17
    01:21:55.201                : Chapter 18
    01:32:25.623                : Chapter 19
    01:34:08.517                : Chapter 20

  • Peso: 11.5 GiB

Sinopsis

Descargar Espiritus Oscuros (2021) WEB-DL 4K UHD HDR Latino. En Antlers, una pequeña ciudad de Oregón, una profesora y su hermano, el sheriff de la localidad, se empiezan a interesar por un estudiante misterioso y distante. A medida que se van conociendo, descubren que el joven esconde un peligroso secreto que podría tener consecuencias fatales.

Nota: Resubida con audio corregido!!!

Ficha técnica

Video trailer de la película

Enlaces de descarga

Rip de Bluray

Descargar Espiritus Oscuros (2021) WEB-DL 4K UHD HDR Latino




Aportes de DPeliculasHDmega la pass es:dpeliculashdmega.org Aportes de CinemaniaHD la pass es:cinemaniahdd.com
Guardado en : 4K HDR , 4K UHD , Drama , Misterio , Terror

Películas relacionadas

Espiritus Oscuros (2021) WEB-DL 4K UHD HDR Latino pelicula full hd, Espiritus Oscuros (2021) WEB-DL 4K UHD HDR Latino mega latino, Espiritus Oscuros (2021) WEB-DL 4K UHD HDR Latino 4k latino, Espiritus Oscuros (2021) WEB-DL 4K UHD HDR Latino pelicula completa, Espiritus Oscuros (2021) WEB-DL 4K UHD HDR Latino descargar gratis, descargar Espiritus Oscuros (2021) WEB-DL 4K UHD HDR Latino pelicula latino, Espiritus Oscuros (2021) WEB-DL 4K UHD HDR Latino 1 link mega, Espiritus Oscuros (2021) WEB-DL 4K UHD HDR Latino 1 link google drive, Espiritus Oscuros (2021) WEB-DL 4K UHD HDR Latino hd 1080p latino.
Comentarios 0