×

¿Problemas para descargar con Mozilla, EDGE? Deshabilita la opción "Abrir vinculos en una pestaña nueva" tal como lo muestra ésta imagen.

Espiritus Oscuros (2021) REMUX 1080p Latino

280 vistas

Información de Espiritus Oscuros (2021) REMUX 1080p Latino

Datos de la película

  • Calidad: Full 1080p
  • Audio: Español Latino AC3 5.1 BLURAY - Ingles DTS 5.1 BLURAY
  • Subtitulos: Español Latino PGS - Ingles PGS
  • Resolución: 1920x1080p
  • Formato: MKV
  • Codec: H.264
  • Encoder: Melkor
  • Mediainfo: Clic para Mostrar Datos Ver
  • Espiritus Oscuros (2021) REMUX 1080p Latino.mkv
    Format                      : Matroska
    Format version              : Version 4
    File size                   : 28.0 GiB
    Duration                    : 1 h 39 min
    Overall bit rate mode       : Variable
    Overall bit rate            : 40.3 Mb/s
    Movie name                  : Antlers (2021) CinemaniaHDD.Net
    Encoded date                : UTC 2022-01-06 21:07:14
    Writing application         : mkvmerge v56.1.0 ('My Friend') 64-bit
    Writing library             : libebml v1.4.2 + libmatroska v1.6.4
    Attachments                 : CINEMANIAHD.png

    Video
    ID                          : 1
    ID in the original source m : 4113 (0x1011)
    Format                      : AVC
    Format/Info                 : Advanced Video Codec
    Format profile              : High@L4.1
    Format settings             : CABAC / 4 Ref Frames
    Format settings, CABAC      : Yes
    Format settings, Reference  : 4 frames
    Codec ID                    : V_MPEG4/ISO/AVC
    Duration                    : 1 h 39 min
    Bit rate mode               : Variable
    Bit rate                    : 35.8 Mb/s
    Maximum bit rate            : 39.2 Mb/s
    Width                       : 1 920 pixels
    Height                      : 1 080 pixels
    Display aspect ratio        : 16:9
    Frame rate mode             : Constant
    Frame rate                  : 23.976 (24000/1001) FPS
    Color space                 : YUV
    Chroma subsampling          : 4:2:0
    Bit depth                   : 8 bits
    Scan type                   : Progressive
    Bits/(Pixel*Frame)          : 0.721
    Stream size                 : 24.9 GiB (89%)
    Title                       : REMUX HD1080p [CinemaniaHDD]
    Default                     : Yes
    Forced                      : Yes
    Original source medium      : Blu-ray

    Audio #1
    ID                          : 2
    ID in the original source m : 4355 (0x1103)
    Format                      : AC-3
    Format/Info                 : Audio Coding 3
    Commercial name             : Dolby Digital
    Codec ID                    : A_AC3
    Duration                    : 1 h 39 min
    Bit rate mode               : Constant
    Bit rate                    : 640 kb/s
    Channel(s)                  : 6 channels
    Channel layout              : L R C LFE Ls Rs
    Sampling rate               : 48.0 kHz
    Frame rate                  : 31.250 FPS (1536 SPF)
    Compression mode            : Lossy
    Stream size                 : 455 MiB (2%)
    Title                       : Español Latino [CinemaniaHDD]
    Language                    : Spanish
    Service kind                : Complete Main
    Default                     : Yes
    Forced                      : Yes
    Original source medium      : Blu-ray

    Audio #2
    ID                          : 3
    ID in the original source m : 4352 (0x1100)
    Format                      : DTS XLL
    Format/Info                 : Digital Theater Systems
    Commercial name             : DTS-HD Master Audio
    Codec ID                    : A_DTS
    Duration                    : 1 h 39 min
    Bit rate mode               : Variable
    Bit rate                    : 3 821 kb/s
    Channel(s)                  : 6 channels
    Channel layout              : C L R Ls Rs LFE
    Sampling rate               : 48.0 kHz
    Frame rate                  : 93.750 FPS (512 SPF)
    Bit depth                   : 24 bits
    Compression mode            : Lossless
    Stream size                 : 2.65 GiB (9%)
    Title                       : Ingles [CinemaniaHDD]
    Language                    : English
    Default                     : No
    Forced                      : No
    Original source medium      : Blu-ray

    Text #1
    ID                          : 4
    ID in the original source m : 4612 (0x1204)
    Format                      : PGS
    Muxing mode                 : zlib
    Codec ID                    : S_HDMV/PGS
    Codec ID/Info               : Picture based subtitle format used on BDs/HD-DVDs
    Duration                    : 37 min 15 s
    Bit rate                    : 719 b/s
    Count of elements           : 14
    Stream size                 : 196 KiB (0%)
    Title                       : Forzados-PGS [CinemaniaHDD]
    Language                    : Spanish
    Default                     : No
    Forced                      : No
    Original source medium      : Blu-ray

    Text #2
    ID                          : 5
    ID in the original source m : 4610 (0x1202)
    Format                      : PGS
    Muxing mode                 : zlib
    Codec ID                    : S_HDMV/PGS
    Codec ID/Info               : Picture based subtitle format used on BDs/HD-DVDs
    Duration                    : 1 h 38 min
    Bit rate                    : 18.4 kb/s
    Count of elements           : 1336
    Stream size                 : 13.0 MiB (0%)
    Title                       : Español-PGS [CinemaniaHDD]
    Language                    : Spanish
    Default                     : No
    Forced                      : No
    Original source medium      : Blu-ray

    Text #3
    ID                          : 6
    ID in the original source m : 4608 (0x1200)
    Format                      : PGS
    Muxing mode                 : zlib
    Codec ID                    : S_HDMV/PGS
    Codec ID/Info               : Picture based subtitle format used on BDs/HD-DVDs
    Duration                    : 1 h 33 min
    Bit rate                    : 25.7 kb/s
    Count of elements           : 1762
    Stream size                 : 17.2 MiB (0%)
    Title                       : Ingles-PGS [CinemaniaHDD]
    Language                    : English
    Default                     : No
    Forced                      : No
    Original source medium      : Blu-ray

    Text #4
    ID                          : 7
    Format                      : UTF-8
    Codec ID                    : S_TEXT/UTF8
    Codec ID/Info               : UTF-8 Plain Text
    Duration                    : 37 min 20 s
    Bit rate                    : 1 b/s
    Count of elements           : 9
    Stream size                 : 307 Bytes (0%)
    Title                       : Forzados-SRT [CinemaniaHDD]
    Language                    : Spanish
    Default                     : Yes
    Forced                      : Yes

    Text #5
    ID                          : 8
    Format                      : UTF-8
    Codec ID                    : S_TEXT/UTF8
    Codec ID/Info               : UTF-8 Plain Text
    Duration                    : 44 min 39 s
    Bit rate                    : 0 b/s
    Count of elements           : 5
    Stream size                 : 117 Bytes (0%)
    Title                       : Español-SRT [CinemaniaHDD]
    Language                    : Spanish
    Default                     : No
    Forced                      : No

    Menu
    00:00:00.000                : Chapter 01
    00:07:29.157                : Chapter 02
    00:10:09.233                : Chapter 03
    00:16:25.609                : Chapter 04
    00:20:36.652                : Chapter 05
    00:25:35.450                : Chapter 06
    00:30:32.497                : Chapter 07
    00:35:56.779                : Chapter 08
    00:38:08.869                : Chapter 09
    00:42:57.074                : Chapter 10
    00:47:30.347                : Chapter 11
    00:51:08.315                : Chapter 12
    00:55:35.540                : Chapter 13
    01:00:02.348                : Chapter 14
    01:07:38.429                : Chapter 15
    01:14:37.890                : Chapter 16
    01:17:53.043                : Chapter 17
    01:21:55.201                : Chapter 18
    01:32:25.623                : Chapter 19
    01:34:08.517                : Chapter 20

  • Peso: 28.0 GiB

Sinopsis

Descargar Espiritus Oscuros (2021) REMUX 1080p Latino. En Antlers, una pequeña ciudad de Oregón, una profesora y su hermano, el sheriff de la localidad, se empiezan a interesar por un estudiante misterioso y distante. A medida que se van conociendo, descubren que el joven esconde un peligroso secreto que podría tener consecuencias fatales.

Ficha técnica

Video trailer de la película

Enlaces de descarga

Rip de Bluray

Descargar Espiritus Oscuros (2021) REMUX 1080p Latino




Aportes de DPeliculasHDmega la pass es:dpeliculashdmega.org Aportes de CinemaniaHD la pass es:cinemaniahdd.com
Guardado en : Drama , Misterio , Remux , Terror

Películas relacionadas

descargar Espiritus Oscuros (2021) REMUX 1080p Latino Full 1080p 1080p gratis, Espiritus Oscuros (2021) REMUX 1080p Latino Full 1080p mega 1 link, Espiritus Oscuros (2021) REMUX 1080p Latino Full 1080p pelicula completa, descargar Espiritus Oscuros (2021) REMUX 1080p Latino Full 1080p gratis en mega.

Espiritus Oscuros (2021) REMUX 1080p Latino pelicula full hd, Espiritus Oscuros (2021) REMUX 1080p Latino mega latino, Espiritus Oscuros (2021) REMUX 1080p Latino 4k latino, Espiritus Oscuros (2021) REMUX 1080p Latino pelicula completa, Espiritus Oscuros (2021) REMUX 1080p Latino descargar gratis, descargar Espiritus Oscuros (2021) REMUX 1080p Latino pelicula latino, Espiritus Oscuros (2021) REMUX 1080p Latino 1 link mega, Espiritus Oscuros (2021) REMUX 1080p Latino 1 link google drive, Espiritus Oscuros (2021) REMUX 1080p Latino hd 1080p latino.
Comentarios 0