×

¿Problemas para descargar con Mozilla, EDGE? Deshabilita la opción "Abrir vinculos en una pestaña nueva" tal como lo muestra ésta imagen.

Espíritus del mar (2019) REMUX 1080p Latino

490 vistas

Información de Espíritus del mar (2019) REMUX 1080p Latino

Datos de la película

  • Calidad: Full 1080p
  • Audio: Se especifica abajo de la Sinopsis
  • Subtitulos: Español Latino SRT- FORZADOS SRT
  • Resolución: 1920x1080
  • Formato:
  • Codec: H.264
  • Encoder: cinemaniahdd
  • Mediainfo: Clic para Mostrar Datos Ver
  • Espíritus del mar (2019) REMUX 1080p Latino.mkv
    Format                      : Matroska
    Format version              : Version 4
    File size                   : 30.5 GiB
    Duration                    : 1 h 51 min
    Overall bit rate mode       : Variable
    Overall bit rate            : 39.3 Mb/s
    Movie name                  : Espíritus del mar (2019) - CinemaniaHDD.Net
    Encoded date                : UTC 2020-04-22 03:51:10
    Writing application         : mkvmerge v42.0.0 ('Overtime') 64-bit
    Writing library             : libebml v1.3.10 + libmatroska v1.5.2

    Video
    ID                          : 1
    Format                      : AVC
    Format/Info                 : Advanced Video Codec
    Format profile              : High@L4.1
    Format settings             : CABAC / 4 Ref Frames
    Format settings, CABAC      : Yes
    Format settings, ReFrames   : 4 frames
    Codec ID                    : V_MPEG4/ISO/AVC
    Duration                    : 1 h 51 min
    Bit rate mode               : Variable
    Bit rate                    : 35.0 Mb/s
    Maximum bit rate            : 36.0 Mb/s
    Width                       : 1 920 pixels
    Height                      : 1 080 pixels
    Display aspect ratio        : 16:9
    Frame rate mode             : Constant
    Frame rate                  : 23.976 (24000/1001) FPS
    Color space                 : YUV
    Chroma subsampling          : 4:2:0
    Bit depth                   : 8 bits
    Scan type                   : Progressive
    Bits/(Pixel*Frame)          : 0.703
    Stream size                 : 27.2 GiB (89%)
    Title                       : CinemaniaHDD
    Language                    : Japanese
    Default                     : Yes
    Forced                      : No

    Audio #1
    ID                          : 2
    Format                      : AC-3
    Format/Info                 : Audio Coding 3
    Commercial name             : Dolby Digital
    Codec ID                    : A_AC3
    Duration                    : 1 h 51 min
    Bit rate mode               : Constant
    Bit rate                    : 256 kb/s
    Channel(s)                  : 2 channels
    Channel layout              : L R
    Sampling rate               : 48.0 kHz
    Frame rate                  : 31.250 FPS (1536 SPF)
    Bit depth                   : 16 bits
    Compression mode            : Lossy
    Stream size                 : 204 MiB (1%)
    Title                       : Español latino [CinemaniaHDD]
    Language                    : Spanish
    Service kind                : Complete Main
    Default                     : Yes
    Forced                      : No

    Audio #2
    ID                          : 3
    Format                      : DTS XLL
    Format/Info                 : Digital Theater Systems
    Commercial name             : DTS-HD Master Audio
    Codec ID                    : A_DTS
    Duration                    : 1 h 51 min
    Bit rate mode               : Variable
    Bit rate                    : 4 048 kb/s
    Channel(s)                  : 6 channels
    Channel layout              : C L R Ls Rs LFE
    Sampling rate               : 48.0 kHz
    Frame rate                  : 93.750 FPS (512 SPF)
    Bit depth                   : 24 bits
    Compression mode            : Lossless
    Stream size                 : 3.15 GiB (10%)
    Title                       : Japonés [CinemaniaHDD]
    Language                    : Japanese
    Default                     : No
    Forced                      : No

    Text #1
    ID                          : 4
    Format                      : UTF-8
    Codec ID                    : S_TEXT/UTF8
    Codec ID/Info               : UTF-8 Plain Text
    Duration                    : 1 s 920 ms
    Bit rate                    : 129 b/s
    Count of elements           : 1
    Stream size                 : 31.0 Bytes (0%)
    Title                       : Forzados [CinemaniaHDD]
    Language                    : Spanish
    Default                     : Yes
    Forced                      : Yes

    Text #2
    ID                          : 5
    Format                      : UTF-8
    Codec ID                    : S_TEXT/UTF8
    Codec ID/Info               : UTF-8 Plain Text
    Duration                    : 1 h 50 min
    Bit rate                    : 34 b/s
    Count of elements           : 985
    Stream size                 : 28.0 KiB (0%)
    Title                       : Español latino [CinemaniaHDD]
    Language                    : Spanish
    Default                     : No
    Forced                      : No

    Text #3
    ID                          : 6
    Format                      : PGS
    Muxing mode                 : zlib
    Codec ID                    : S_HDMV/PGS
    Codec ID/Info               : Picture based subtitle format used on BDs/HD-DVDs
    Duration                    : 1 h 50 min
    Bit rate                    : 24.7 kb/s
    Count of elements           : 2685
    Stream size                 : 19.6 MiB (0%)
    Title                       : Japonés [CinemaniaHDD]
    Language                    : Japanese
    Default                     : No
    Forced                      : No

    Menu
    00:00:00.000                : en:Chapter 01
    00:03:05.811                : en:Chapter 02
    00:11:01.369                : en:Chapter 03
    00:17:19.163                : en:Chapter 04
    00:23:45.799                : en:Chapter 05
    00:26:58.033                : en:Chapter 06
    00:32:25.068                : en:Chapter 07
    00:41:22.939                : en:Chapter 08
    00:48:05.674                : en:Chapter 09
    00:57:55.472                : en:Chapter 10
    01:06:12.760                : en:Chapter 11
    01:13:08.676                : en:Chapter 12
    01:19:02.279                : en:Chapter 13
    01:25:52.147                : en:Chapter 14
    01:35:20.131                : en:Chapter 15
    01:39:34.677                : en:Chapter 16
    01:44:42.234                : en:Chapter 17
    01:48:37.511                : en:Chapter 18

     

  • Peso: 30.5 GiB

Sinopsis

Ruka es una joven adolescente cuyos padres se han separado. Su padre trabaja en el acuario local, por lo que pasa mucho tiempo allí, fascinada con la enorme cantidad de especies marinas que allí se dan cita. Un día, dos chicos llamados Umi y Sora son trasladados al acuario por problemas familiares. Tras entrar en contacto con ellos, Ruka se da cuenta de que ambos tienen una conexión especial con el océano, al igual que ella. Sin embargo, el poder de sus dos nuevos amigos parece interponerse con los intereses del acuario y de la población en la que todos residen.

Español Latino AC3 2.0 WEB-DL – Japonés DTS-HD 5.1 Bluray

Ficha técnica

Video trailer de la película

Enlaces de descarga

Rip de Bluray

Descargar Espíritus del mar (2019) REMUX 1080p Latino




Aportes de DPeliculasHDmega la pass es:dpeliculashdmega.org Aportes de CinemaniaHD la pass es:cinemaniahdd.com
Guardado en : Animación , Aventura , Fantasía , Misterio , Remux

Películas relacionadas

descargar Espíritus del mar (2019) REMUX 1080p Latino Full 1080p 1080p gratis, Espíritus del mar (2019) REMUX 1080p Latino Full 1080p mega 1 link, Espíritus del mar (2019) REMUX 1080p Latino Full 1080p pelicula completa, descargar Espíritus del mar (2019) REMUX 1080p Latino Full 1080p gratis en mega.

Espíritus del mar (2019) REMUX 1080p Latino pelicula full hd, Espíritus del mar (2019) REMUX 1080p Latino mega latino, Espíritus del mar (2019) REMUX 1080p Latino 4k latino, Espíritus del mar (2019) REMUX 1080p Latino pelicula completa, Espíritus del mar (2019) REMUX 1080p Latino descargar gratis, descargar Espíritus del mar (2019) REMUX 1080p Latino pelicula latino, Espíritus del mar (2019) REMUX 1080p Latino 1 link mega, Espíritus del mar (2019) REMUX 1080p Latino 1 link google drive, Espíritus del mar (2019) REMUX 1080p Latino hd 1080p latino.
Comentarios 0