×

¿Problemas para descargar con Mozilla, EDGE? Deshabilita la opción "Abrir vinculos en una pestaña nueva" tal como lo muestra ésta imagen.

Espíritus del mar (2019) 1080p Latino

942 vistas

Información de Espíritus del mar (2019) 1080p Latino

Datos de la película

  • Calidad: 1080p
  • Audio: Se especifica abajo de la Sinopsis
  • Subtitulos: Español Latino SRT- FORZADOS SRT
  • Resolución: 1920x820
  • Formato: MKV
  • Codec: H.264
  • Encoder: cinemaniahdd
  • Mediainfo: Clic para Mostrar Datos Ver
  • Espíritus del mar (2019) 1080p Latino.mkv
    Format                      : Matroska
    Format version              : Version 4
    File size                   : 3.25 GiB
    Duration                    : 1 h 51 min
    Overall bit rate            : 4 185 kb/s
    Movie name                  : Espíritus del mar (2019) - CinemaniaHDD.Net
    Encoded date                : UTC 2020-04-22 01:05:06
    Writing application         : mkvmerge v42.0.0 ('Overtime') 64-bit
    Writing library             : libebml v1.3.10 + libmatroska v1.5.2

    Video
    ID                          : 1
    Format                      : AVC
    Format/Info                 : Advanced Video Codec
    Format profile              : High@L4.1
    Format settings             : CABAC / 5 Ref Frames
    Format settings, CABAC      : Yes
    Format settings, ReFrames   : 5 frames
    Codec ID                    : V_MPEG4/ISO/AVC
    Duration                    : 1 h 51 min
    Bit rate                    : 3 500 kb/s
    Width                       : 1 920 pixels
    Height                      : 820 pixels
    Display aspect ratio        : 2.35:1
    Frame rate mode             : Constant
    Frame rate                  : 23.976 (24000/1001) FPS
    Color space                 : YUV
    Chroma subsampling          : 4:2:0
    Bit depth                   : 8 bits
    Scan type                   : Progressive
    Bits/(Pixel*Frame)          : 0.093
    Stream size                 : 2.70 GiB (83%)
    Title                       : CinemaniaHDD
    Writing library             : x264 core 157 r2935 545de2f
    Encoding settings           : cabac=1 / ref=5 / deblock=1:0:0 / analyse=0x3:0x113 / me=hex / subme=8 / psy=1 / psy_rd=1.00:0.00 / mixed_ref=1 / me_range=16 / chroma_me=1 / trellis=2 / 8x8dct=1 / cqm=0 / deadzone=21,11 / fast_pskip=1 / chroma_qp_offset=-2 / threads=26 / lookahead_threads=4 / sliced_threads=0 / nr=0 / decimate=1 / interlaced=0 / bluray_compat=0 / constrained_intra=0 / bframes=3 / b_pyramid=2 / b_adapt=1 / b_bias=0 / direct=3 / weightb=1 / open_gop=0 / weightp=2 / keyint=240 / keyint_min=24 / scenecut=40 / intra_refresh=0 / rc_lookahead=50 / rc=abr / mbtree=1 / bitrate=3500 / ratetol=1.0 / qcomp=0.60 / qpmin=0 / qpmax=69 / qpstep=4 / vbv_maxrate=62500 / vbv_bufsize=78125 / nal_hrd=none / filler=0 / ip_ratio=1.40 / aq=1:1.00
    Default                     : Yes
    Forced                      : No
    Color range                 : Limited
    Color primaries             : BT.709
    Transfer characteristics    : BT.709
    Matrix coefficients         : BT.709

    Audio #1
    ID                          : 2
    Format                      : AC-3
    Format/Info                 : Audio Coding 3
    Commercial name             : Dolby Digital
    Codec ID                    : A_AC3
    Duration                    : 1 h 51 min
    Bit rate mode               : Constant
    Bit rate                    : 256 kb/s
    Channel(s)                  : 2 channels
    Channel layout              : L R
    Sampling rate               : 48.0 kHz
    Frame rate                  : 31.250 FPS (1536 SPF)
    Bit depth                   : 16 bits
    Compression mode            : Lossy
    Delay relative to video     : -21 ms
    Stream size                 : 204 MiB (6%)
    Title                       : Español latino [CinemaniaHDD]
    Language                    : Spanish
    Service kind                : Complete Main
    Default                     : Yes
    Forced                      : No

    Audio #2
    ID                          : 3
    Format                      : AC-3
    Format/Info                 : Audio Coding 3
    Commercial name             : Dolby Digital
    Codec ID                    : A_AC3
    Duration                    : 1 h 51 min
    Bit rate mode               : Constant
    Bit rate                    : 448 kb/s
    Channel(s)                  : 6 channels
    Channel layout              : L R C LFE Ls Rs
    Sampling rate               : 48.0 kHz
    Frame rate                  : 31.250 FPS (1536 SPF)
    Bit depth                   : 16 bits
    Compression mode            : Lossy
    Delay relative to video     : -21 ms
    Stream size                 : 357 MiB (11%)
    Title                       : Japonés [CinemaniaHDD]
    Language                    : Japanese
    Service kind                : Complete Main
    Default                     : No
    Forced                      : No

    Text #1
    ID                          : 4
    Format                      : UTF-8
    Codec ID                    : S_TEXT/UTF8
    Codec ID/Info               : UTF-8 Plain Text
    Duration                    : 20 s 0 ms
    Bit rate                    : 6 b/s
    Count of elements           : 1
    Stream size                 : 16.0 Bytes (0%)
    Title                       : Forzados [CinemaniaHDD]
    Language                    : Spanish
    Default                     : Yes
    Forced                      : Yes

    Text #2
    ID                          : 5
    Format                      : UTF-8
    Codec ID                    : S_TEXT/UTF8
    Codec ID/Info               : UTF-8 Plain Text
    Duration                    : 1 h 50 min
    Bit rate                    : 34 b/s
    Count of elements           : 985
    Stream size                 : 28.0 KiB (0%)
    Title                       : Español latino [CinemaniaHDD]
    Language                    : Spanish
    Default                     : No
    Forced                      : No

    Menu
    00:00:00.000                : :Chapter 1
    00:03:05.811                : :Chapter 2
    00:11:01.369                : :Chapter 3
    00:17:19.163                : :Chapter 4
    00:23:45.799                : :Chapter 5
    00:26:58.033                : :Chapter 6
    00:32:25.068                : :Chapter 7
    00:41:22.939                : :Chapter 8
    00:48:05.674                : :Chapter 9
    00:57:55.472                : :Chapter 10
    01:06:12.760                : :Chapter 11
    01:13:08.676                : :Chapter 12
    01:19:02.279                : :Chapter 13
    01:25:52.147                : :Chapter 14
    01:35:20.131                : :Chapter 15
    01:39:34.677                : :Chapter 16
    01:44:42.234                : :Chapter 17
    01:48:37.511                : :Chapter 18

     

  • Peso: 3.25 GiB

Sinopsis

Ruka es una joven adolescente cuyos padres se han separado. Su padre trabaja en el acuario local, por lo que pasa mucho tiempo allí, fascinada con la enorme cantidad de especies marinas que allí se dan cita. Un día, dos chicos llamados Umi y Sora son trasladados al acuario por problemas familiares. Tras entrar en contacto con ellos, Ruka se da cuenta de que ambos tienen una conexión especial con el océano, al igual que ella. Sin embargo, el poder de sus dos nuevos amigos parece interponerse con los intereses del acuario y de la población en la que todos residen.

Español Latino AC3 2.0 WEB-DL – Japonés AC3 5.1 Bluray

Ficha técnica

Video trailer de la película

Enlaces de descarga

Rip de Bluray

Descargar Espíritus del mar (2019) 1080p Latino




Aportes de DPeliculasHDmega la pass es:dpeliculashdmega.org Aportes de CinemaniaHD la pass es:cinemaniahdd.com

Películas relacionadas

descargar Espíritus del mar (2019) 1080p Latino 1080p 1080p gratis, Espíritus del mar (2019) 1080p Latino 1080p mega 1 link, Espíritus del mar (2019) 1080p Latino 1080p pelicula completa, descargar Espíritus del mar (2019) 1080p Latino 1080p gratis en mega.

Espíritus del mar (2019) 1080p Latino pelicula full hd, Espíritus del mar (2019) 1080p Latino mega latino, Espíritus del mar (2019) 1080p Latino 4k latino, Espíritus del mar (2019) 1080p Latino pelicula completa, Espíritus del mar (2019) 1080p Latino descargar gratis, descargar Espíritus del mar (2019) 1080p Latino pelicula latino, Espíritus del mar (2019) 1080p Latino 1 link mega, Espíritus del mar (2019) 1080p Latino 1 link google drive, Espíritus del mar (2019) 1080p Latino hd 1080p latino.
Comentarios 0