×

¿Problemas para descargar con Mozilla, EDGE? Deshabilita la opción "Abrir vinculos en una pestaña nueva" tal como lo muestra ésta imagen.

Espiritu de Lucha (2021) REMUX 1080p Latino

152 vistas

Información de Espiritu de Lucha (2021) REMUX 1080p Latino

Datos de la película

  • Calidad: Full 1080p
  • Audio: Español Latino AC3 5.1 WEB-DL - Ingles DTS 5.1 BLURAY
  • Subtitulos: Español Latino PGS - Ingles PGS
  • Resolución: 1920x1080p
  • Formato: MKV
  • Codec: H.264
  • Encoder: Melkor
  • Mediainfo: Clic para Mostrar Datos Ver
  • Espiritu de Lucha (2021) REMUX 1080p Latino.mkv
    Format                      : Matroska
    Format version              : Version 4
    File size                   : 25.6 GiB
    Duration                    : 1 h 57 min
    Overall bit rate mode       : Variable
    Overall bit rate            : 31.1 Mb/s
    Movie name                  : 12 Mighty Orphans (2021) CinemaniaHDD.Net
    Encoded date                : UTC 2021-09-03 08:20:42
    Writing application         : mkvmerge v56.1.0 ('My Friend') 64-bit
    Writing library             : libebml v1.4.2 + libmatroska v1.6.4
    Attachments                 : CINEMANIAHD.png

    Video
    ID                          : 1
    Format                      : AVC
    Format/Info                 : Advanced Video Codec
    Format profile              : High@L4.1
    Format settings             : CABAC / 2 Ref Frames
    Format settings, CABAC      : Yes
    Format settings, Reference  : 2 frames
    Codec ID                    : V_MPEG4/ISO/AVC
    Duration                    : 1 h 57 min
    Bit rate mode               : Variable
    Bit rate                    : 27.8 Mb/s
    Width                       : 1 920 pixels
    Height                      : 1 080 pixels
    Display aspect ratio        : 16:9
    Frame rate mode             : Constant
    Frame rate                  : 23.976 (24000/1001) FPS
    Color space                 : YUV
    Chroma subsampling          : 4:2:0
    Bit depth                   : 8 bits
    Scan type                   : Progressive
    Bits/(Pixel*Frame)          : 0.559
    Stream size                 : 22.9 GiB (89%)
    Title                       : REMUX HD1080p [CinemaniaHDD]
    Default                     : Yes
    Forced                      : Yes

    Audio #1
    ID                          : 2
    Format                      : AC-3
    Format/Info                 : Audio Coding 3
    Commercial name             : Dolby Digital
    Codec ID                    : A_AC3
    Duration                    : 1 h 57 min
    Bit rate mode               : Constant
    Bit rate                    : 448 kb/s
    Channel(s)                  : 6 channels
    Channel layout              : L R C LFE Ls Rs
    Sampling rate               : 48.0 kHz
    Frame rate                  : 31.250 FPS (1536 SPF)
    Compression mode            : Lossy
    Stream size                 : 377 MiB (1%)
    Title                       : Español Latino AC3 [CinemaniaHDD]
    Language                    : Spanish
    Service kind                : Complete Main
    Default                     : Yes
    Forced                      : Yes

    Audio #2
    ID                          : 3
    Format                      : DTS XLL
    Format/Info                 : Digital Theater Systems
    Commercial name             : DTS-HD Master Audio
    Codec ID                    : A_DTS
    Duration                    : 1 h 57 min
    Bit rate mode               : Variable
    Bit rate                    : 2 202 kb/s
    Channel(s)                  : 6 channels
    Channel layout              : C L R Ls Rs LFE
    Sampling rate               : 48.0 kHz
    Frame rate                  : 93.750 FPS (512 SPF)
    Bit depth                   : 16 bits
    Compression mode            : Lossless
    Stream size                 : 1.81 GiB (7%)
    Title                       : Ingles [CinemaniaHDD]
    Language                    : English
    Default                     : No
    Forced                      : No

    Audio #3
    ID                          : 4
    Format                      : E-AC-3
    Format/Info                 : Enhanced AC-3
    Commercial name             : Dolby Digital Plus
    Codec ID                    : A_EAC3
    Duration                    : 1 h 57 min
    Bit rate mode               : Constant
    Bit rate                    : 640 kb/s
    Channel(s)                  : 6 channels
    Channel layout              : L R C LFE Ls Rs
    Sampling rate               : 48.0 kHz
    Frame rate                  : 31.250 FPS (1536 SPF)
    Compression mode            : Lossy
    Stream size                 : 539 MiB (2%)
    Title                       : Español Latino EAC3 [CinemaniaHDD]
    Language                    : Spanish
    Service kind                : Complete Main
    Default                     : No
    Forced                      : No

    Text #1
    ID                          : 5
    Format                      : PGS
    Muxing mode                 : zlib
    Codec ID                    : S_HDMV/PGS
    Codec ID/Info               : Picture based subtitle format used on BDs/HD-DVDs
    Duration                    : 1 h 56 min
    Bit rate                    : 49.6 kb/s
    Count of elements           : 3953
    Stream size                 : 41.5 MiB (0%)
    Title                       : Español-PGS [CinemaniaHDD]
    Language                    : Spanish
    Default                     : No
    Forced                      : No

    Text #2
    ID                          : 6
    Format                      : PGS
    Muxing mode                 : zlib
    Codec ID                    : S_HDMV/PGS
    Codec ID/Info               : Picture based subtitle format used on BDs/HD-DVDs
    Duration                    : 1 h 50 min
    Bit rate                    : 49.6 kb/s
    Count of elements           : 3792
    Stream size                 : 39.2 MiB (0%)
    Title                       : Ingles-PGS [CinemaniaHDD]
    Language                    : English
    Default                     : No
    Forced                      : No

    Text #3
    ID                          : 7
    Format                      : UTF-8
    Codec ID                    : S_TEXT/UTF8
    Codec ID/Info               : UTF-8 Plain Text
    Duration                    : 1 h 55 min
    Bit rate                    : 5 b/s
    Count of elements           : 78
    Stream size                 : 4.50 KiB (0%)
    Title                       : Forzados-SRT [CinemaniaHDD]
    Language                    : Spanish
    Default                     : Yes
    Forced                      : Yes

    Text #4
    ID                          : 8
    Format                      : UTF-8
    Codec ID                    : S_TEXT/UTF8
    Codec ID/Info               : UTF-8 Plain Text
    Duration                    : 1 h 55 min
    Bit rate                    : 84 b/s
    Count of elements           : 1973
    Stream size                 : 71.4 KiB (0%)
    Title                       : Español-SRT [CinemaniaHDD]
    Language                    : Spanish
    Default                     : No
    Forced                      : No

    Menu
    00:00:00.000                : :Chapter 01
    00:08:33.847                : :Chapter 02
    00:18:05.459                : :Chapter 03
    00:22:46.490                : :Chapter 04
    00:30:16.106                : :Chapter 05
    00:38:09.078                : :Chapter 06
    00:44:24.829                : :Chapter 07
    00:48:48.634                : :Chapter 08
    00:53:53.147                : :Chapter 09
    00:58:59.244                : :Chapter 10
    01:05:08.655                : :Chapter 11
    01:10:51.956                : :Chapter 12
    01:19:33.602                : :Chapter 13
    01:29:04.965                : :Chapter 14
    01:39:28.963                : :Chapter 15
    01:49:11.295                : :Chapter 16

  • Peso: 25.6 GiB

Sinopsis

Descargar Espiritu de Lucha (2021) REMUX 1080p Latino. Perseguido por su misterioso pasado, un devoto entrenador de fútbol de la escuela secundaria lleva a un escuálido equipo de huérfanos al campeonato estatal durante la Gran Depresión e inspira a una nación rota en el camino.

Ficha técnica

  • Titulo original: 12 Mighty Orphans
  • Fecha de lanzamiento: 11-06-2021 (United States of America)
  • Director: Ty Roberts
  • Género: Drama, Historia, Remux

Video trailer de la película

Enlaces de descarga

Rip de Bluray

Descargar Espiritu de Lucha (2021) REMUX 1080p Latino




Aportes de DPeliculasHDmega la pass es:dpeliculashdmega.org Aportes de CinemaniaHD la pass es:cinemaniahdd.com
Guardado en : Drama , Historia , Remux

Películas relacionadas

  • Noche sin paz (2022) REMUX 1080p Latino

    Noche sin paz (2022) REMUX 1080p Latino

    2022
    Noche sin paz (2022) REMUX 1080p Latino

    1h 41m 2022

    Descargar Noche sin paz (2022) REMUX 1080p Latino. Cuando un equipo de mercenarios irrumpe en Nochebuena...

    Director: Tyshana Hobson

    Género: Acción

    Actores: Yoon Cha-Lee

  • Narvik (2022) NF WEB-DL 1080p Latino

    Narvik (2022) NF WEB-DL 1080p Latino

    2022
    Narvik (2022) NF WEB-DL 1080p Latino

    1h 48m 2022

    Descargar Narvik (2022) NF WEB-DL 1080p Latino. Abril de 1940. Los ojos del mundo están puestos en Narvik,...

    Director: Suzanne Svae-Johansen

    Género: Acción

    Actores: Torfinn Nag

descargar Espiritu de Lucha (2021) REMUX 1080p Latino Full 1080p 1080p gratis, Espiritu de Lucha (2021) REMUX 1080p Latino Full 1080p mega 1 link, Espiritu de Lucha (2021) REMUX 1080p Latino Full 1080p pelicula completa, descargar Espiritu de Lucha (2021) REMUX 1080p Latino Full 1080p gratis en mega.

Espiritu de Lucha (2021) REMUX 1080p Latino pelicula full hd, Espiritu de Lucha (2021) REMUX 1080p Latino mega latino, Espiritu de Lucha (2021) REMUX 1080p Latino 4k latino, Espiritu de Lucha (2021) REMUX 1080p Latino pelicula completa, Espiritu de Lucha (2021) REMUX 1080p Latino descargar gratis, descargar Espiritu de Lucha (2021) REMUX 1080p Latino pelicula latino, Espiritu de Lucha (2021) REMUX 1080p Latino 1 link mega, Espiritu de Lucha (2021) REMUX 1080p Latino 1 link google drive, Espiritu de Lucha (2021) REMUX 1080p Latino hd 1080p latino.
Comentarios 0