×

¿Problemas para descargar con Mozilla, EDGE? Deshabilita la opción "Abrir vinculos en una pestaña nueva" tal como lo muestra ésta imagen.

Wolfwalkers: espíritu de lobo (2020) HD 1080p Latino

449 vistas

Información de Wolfwalkers: espíritu de lobo (2020) HD 1080p Latino

Datos de la película

  • Calidad: 1080p
  • Audio: Español Latino AC3 5.1 BLURAY - Ingles AC3 5.1 BLURAY
  • Subtitulos: Español Latino SRT- FORZADOS SRT
  • Resolución: 1920x1040p
  • Formato: MKV
  • Codec: H.264
  • Encoder: Melkor
  • Mediainfo: Clic para Mostrar Datos Ver
  • Wolfwalkers Espiritu De Lobo (2020) HD 1080p Latino.mkv
    Format                      : Matroska
    Format version              : Version 4
    File size                   : 3.33 GiB
    Duration                    : 1 h 43 min
    Overall bit rate            : 4 590 kb/s
    Movie name                  : Wolfwalkers (2020) CinemaniaHDD.Net
    Encoded date                : UTC 2022-01-10 02:11:37
    Writing application         : mkvmerge v56.1.0 ('My Friend') 64-bit
    Writing library             : libebml v1.4.2 + libmatroska v1.6.4
    Attachments                 : CINEMANIAHD.png

    Video
    ID                          : 1
    Format                      : AVC
    Format/Info                 : Advanced Video Codec
    Format profile              : High@L4.1
    Format settings             : CABAC / 4 Ref Frames
    Format settings, CABAC      : Yes
    Format settings, Reference  : 4 frames
    Codec ID                    : V_MPEG4/ISO/AVC
    Duration                    : 1 h 43 min
    Bit rate                    : 3 500 kb/s
    Width                       : 1 920 pixels
    Height                      : 1 040 pixels
    Display aspect ratio        : 1.85:1
    Frame rate mode             : Constant
    Frame rate                  : 23.976 (24000/1001) FPS
    Color space                 : YUV
    Chroma subsampling          : 4:2:0
    Bit depth                   : 8 bits
    Scan type                   : Progressive
    Bits/(Pixel*Frame)          : 0.073
    Stream size                 : 2.54 GiB (76%)
    Title                       : HD1080p [CinemaniaHDD]
    Writing library             : x264 core 163 r3059 b684ebe0
    Encoding settings           : cabac=1 / ref=4 / deblock=1:1:1 / analyse=0x3:0x133 / me=umh / subme=9 / psy=1 / psy_rd=0.40:0.00 / mixed_ref=1 / me_range=16 / chroma_me=1 / trellis=2 / 8x8dct=1 / cqm=0 / deadzone=21,11 / fast_pskip=1 / chroma_qp_offset=-2 / threads=24 / lookahead_threads=2 / sliced_threads=0 / nr=0 / decimate=1 / interlaced=0 / bluray_compat=0 / constrained_intra=0 / bframes=5 / b_pyramid=2 / b_adapt=2 / b_bias=0 / direct=3 / weightb=1 / open_gop=0 / weightp=2 / keyint=240 / keyint_min=24 / scenecut=40 / intra_refresh=0 / rc_lookahead=60 / rc=2pass / mbtree=1 / bitrate=3500 / ratetol=1.0 / qcomp=0.60 / qpmin=0 / qpmax=69 / qpstep=4 / cplxblur=20.0 / qblur=0.5 / vbv_maxrate=62500 / vbv_bufsize=78125 / nal_hrd=none / filler=0 / ip_ratio=1.40 / aq=1:0.60
    Default                     : Yes
    Forced                      : Yes
    Color range                 : Limited
    Color primaries             : BT.709
    Transfer characteristics    : BT.709
    Matrix coefficients         : BT.709

    Audio #1
    ID                          : 2
    Format                      : AC-3
    Format/Info                 : Audio Coding 3
    Commercial name             : Dolby Digital
    Codec ID                    : A_AC3
    Duration                    : 1 h 43 min
    Bit rate mode               : Constant
    Bit rate                    : 640 kb/s
    Channel(s)                  : 6 channels
    Channel layout              : L R C LFE Ls Rs
    Sampling rate               : 48.0 kHz
    Frame rate                  : 31.250 FPS (1536 SPF)
    Compression mode            : Lossy
    Delay relative to video     : -5 ms
    Stream size                 : 475 MiB (14%)
    Title                       : Español Latino [CinemaniaHDD]
    Language                    : Spanish
    Service kind                : Complete Main
    Default                     : Yes
    Forced                      : Yes

    Audio #2
    ID                          : 3
    Format                      : AC-3
    Format/Info                 : Audio Coding 3
    Commercial name             : Dolby Digital
    Codec ID                    : A_AC3
    Duration                    : 1 h 43 min
    Bit rate mode               : Constant
    Bit rate                    : 448 kb/s
    Channel(s)                  : 6 channels
    Channel layout              : L R C LFE Ls Rs
    Sampling rate               : 48.0 kHz
    Frame rate                  : 31.250 FPS (1536 SPF)
    Compression mode            : Lossy
    Delay relative to video     : -5 ms
    Stream size                 : 333 MiB (10%)
    Title                       : Ingles [CinemaniaHDD]
    Language                    : English
    Service kind                : Complete Main
    Default                     : No
    Forced                      : No

    Text #1
    ID                          : 4
    Format                      : UTF-8
    Codec ID                    : S_TEXT/UTF8
    Codec ID/Info               : UTF-8 Plain Text
    Duration                    : 1 h 41 min
    Bit rate                    : 0 b/s
    Count of elements           : 5
    Stream size                 : 141 Bytes (0%)
    Title                       : Forzados-SRT [CinemaniaHDD]
    Language                    : Spanish
    Default                     : Yes
    Forced                      : Yes

    Text #2
    ID                          : 5
    Format                      : UTF-8
    Codec ID                    : S_TEXT/UTF8
    Codec ID/Info               : UTF-8 Plain Text
    Duration                    : 1 h 41 min
    Bit rate                    : 44 b/s
    Count of elements           : 1073
    Stream size                 : 33.3 KiB (0%)
    Title                       : Español-SRT [CinemaniaHDD]
    Language                    : Spanish
    Default                     : No
    Forced                      : No

    Text #3
    ID                          : 6
    Format                      : UTF-8
    Codec ID                    : S_TEXT/UTF8
    Codec ID/Info               : UTF-8 Plain Text
    Duration                    : 1 h 36 min
    Bit rate                    : 48 b/s
    Count of elements           : 1151
    Stream size                 : 34.3 KiB (0%)
    Title                       : Ingles-SRT [CinemaniaHDD]
    Language                    : English
    Default                     : No
    Forced                      : No

    Menu
    00:00:00.000                : Chapter 1
    00:05:25.492                : Chapter 2
    00:11:59.510                : Chapter 3
    00:16:07.592                : Chapter 4
    00:20:44.118                : Chapter 5
    00:25:32.614                : Chapter 6
    00:31:34.142                : Chapter 7
    00:36:21.137                : Chapter 8
    00:41:02.293                : Chapter 9
    00:45:40.196                : Chapter 10
    00:51:01.892                : Chapter 11
    00:56:32.222                : Chapter 12
    01:01:42.699                : Chapter 13
    01:06:24.689                : Chapter 14
    01:12:39.188                : Chapter 15
    01:19:04.198                : Chapter 16
    01:24:18.929                : Chapter 17
    01:28:54.246                : Chapter 18
    01:32:37.719                : Chapter 19
    01:37:48.029                : Chapter 20

  • Peso: 3.33 GiB

Sinopsis

Descargar Wolfwalkers: espíritu de lobo (2020) HD 1080p Latino. La joven Robyn viaja a Irlanda con su padre para participar en una cacería de lobos. Todo se complica cuando conoce a Mebh, una niña misteriosa que vive en el bosque y de la que dicen que por las noches, junto a su tribu nómada, se transforma en lobo.

Ficha técnica

Video trailer de la película

Enlaces de descarga

Rip de Bluray

Descargar Wolfwalkers: espíritu de lobo (2020) HD 1080p Latino




Aportes de DPeliculasHDmega la pass es:dpeliculashdmega.org Aportes de CinemaniaHD la pass es:cinemaniahdd.com

Películas relacionadas

  • Mi amigo el dragón (2016) Full HD 1080p Latino

    Mi amigo el dragón (2016) Full HD 1080p Latino

    2016
    Mi amigo el dragón (2016) Full HD 1080p Latino

    1h 43m 2016

    Descargar Mi amigo el dragón (2016) Full HD 1080p Latino. Durante años el Sr. Meacham, un viejo tallador...

    Director: Joe Nolan

    Género: Aventura

    Actores: William J. Rawbone

  • Mi amigo el dragón (2016) REMUX 1080p Latino

    Mi amigo el dragón (2016) REMUX 1080p Latino

    2016
    Mi amigo el dragón (2016) REMUX 1080p Latino

    1h 43m 2016

    Descargar Mi amigo el dragón (2016) REMUX 1080p Latino. Durante años el Sr. Meacham, un viejo tallador...

    Director: Joe Nolan

    Género: Aventura

    Actores: William J. Rawbone

  • El discurso del Rey (2010) 1080p Latino

    El discurso del Rey (2010) 1080p Latino

    2010
    El discurso del Rey (2010) 1080p Latino

    1h 58m 2010

    Descargar El discurso del Rey (2010) 1080p Latino. El duque de York se convirtió en rey de Gran Bretaña...

    Director: Tom Hooper

    Género: Drama

    Actores: Tony Earnshaw

descargar Wolfwalkers: espíritu de lobo (2020) HD 1080p Latino 1080p 1080p gratis, Wolfwalkers: espíritu de lobo (2020) HD 1080p Latino 1080p mega 1 link, Wolfwalkers: espíritu de lobo (2020) HD 1080p Latino 1080p pelicula completa, descargar Wolfwalkers: espíritu de lobo (2020) HD 1080p Latino 1080p gratis en mega.

Wolfwalkers: espíritu de lobo (2020) HD 1080p Latino pelicula full hd, Wolfwalkers: espíritu de lobo (2020) HD 1080p Latino mega latino, Wolfwalkers: espíritu de lobo (2020) HD 1080p Latino 4k latino, Wolfwalkers: espíritu de lobo (2020) HD 1080p Latino pelicula completa, Wolfwalkers: espíritu de lobo (2020) HD 1080p Latino descargar gratis, descargar Wolfwalkers: espíritu de lobo (2020) HD 1080p Latino pelicula latino, Wolfwalkers: espíritu de lobo (2020) HD 1080p Latino 1 link mega, Wolfwalkers: espíritu de lobo (2020) HD 1080p Latino 1 link google drive, Wolfwalkers: espíritu de lobo (2020) HD 1080p Latino hd 1080p latino.
Comentarios 0