×

¿Problemas para descargar con Mozilla, EDGE? Deshabilita la opción "Abrir vinculos en una pestaña nueva" tal como lo muestra ésta imagen.

Saw – Espiral: El juego del miedo continúa (2021) REMUX 1080p Latino

388 vistas

Información de Saw – Espiral: El juego del miedo continúa (2021) REMUX 1080p Latino

Datos de la película

  • Calidad: Full 1080p
  • Audio: Se especifica abajo de la Sinopsis
  • Subtitulos: Español Latino SRT- FORZADOS SRT
  • Resolución: 1920x1080p
  • Formato: MKV
  • Codec: H.264
  • Encoder: Melkor
  • Mediainfo: Clic para Mostrar Datos Ver
  • Espiral (2021) REMUX 1080p Latino.mkv
    Format                      : Matroska
    Format version              : Version 4
    File size                   : 25.6 GiB
    Duration                    : 1 h 33 min
    Overall bit rate mode       : Variable
    Overall bit rate            : 39.4 Mb/s
    Movie name                  : Spiral From the Book of Saw (2021) CinemaniaHDD.Net
    Encoded date                : UTC 2021-07-09 15:37:57
    Writing application         : mkvmerge v56.1.0 ('My Friend') 64-bit
    Writing library             : libebml v1.4.2 + libmatroska v1.6.4
    Attachments                 : CINEMANIAHD.png

    Video
    ID                          : 1
    Format                      : AVC
    Format/Info                 : Advanced Video Codec
    Format profile              : High@L4.1
    Format settings             : CABAC / 4 Ref Frames
    Format settings, CABAC      : Yes
    Format settings, Reference  : 4 frames
    Codec ID                    : V_MPEG4/ISO/AVC
    Duration                    : 1 h 33 min
    Bit rate mode               : Variable
    Bit rate                    : 33.8 Mb/s
    Maximum bit rate            : 35.5 Mb/s
    Width                       : 1 920 pixels
    Height                      : 1 080 pixels
    Display aspect ratio        : 16:9
    Frame rate mode             : Constant
    Frame rate                  : 23.976 (24000/1001) FPS
    Color space                 : YUV
    Chroma subsampling          : 4:2:0
    Bit depth                   : 8 bits
    Scan type                   : Progressive
    Bits/(Pixel*Frame)          : 0.679
    Stream size                 : 22.0 GiB (86%)
    Title                       : REMUX HD1080p [CinemaniaHDD]
    Default                     : Yes
    Forced                      : No

    Audio #1
    ID                          : 2
    Format                      : AC-3
    Format/Info                 : Audio Coding 3
    Commercial name             : Dolby Digital
    Codec ID                    : A_AC3
    Duration                    : 1 h 33 min
    Bit rate mode               : Constant
    Bit rate                    : 640 kb/s
    Channel(s)                  : 6 channels
    Channel layout              : L R C LFE Ls Rs
    Sampling rate               : 48.0 kHz
    Frame rate                  : 31.250 FPS (1536 SPF)
    Compression mode            : Lossy
    Stream size                 : 426 MiB (2%)
    Title                       : Español Latino [CinemaniaHDD]
    Language                    : Spanish
    Service kind                : Complete Main
    Default                     : Yes
    Forced                      : No

    Audio #2
    ID                          : 3
    Format                      : MLP FBA 16-ch
    Format/Info                 : Meridian Lossless Packing FBA with 16-channel presentation
    Commercial name             : Dolby TrueHD with Dolby Atmos
    Codec ID                    : A_TRUEHD
    Duration                    : 1 h 33 min
    Bit rate mode               : Variable
    Bit rate                    : 4 299 kb/s
    Maximum bit rate            : 9 057 kb/s
    Channel(s)                  : 8 channels
    Channel layout              : L R C LFE Ls Rs Lb Rb
    Sampling rate               : 48.0 kHz
    Frame rate                  : 1 200.000 FPS (40 SPF)
    Compression mode            : Lossless
    Stream size                 : 2.80 GiB (11%)
    Title                       : Ingles THD [CinemaniaHDD]
    Language                    : English
    Default                     : No
    Forced                      : No
    Number of dynamic objects   : 11
    Bed channel count           : 1 channel
    Bed channel configuration   : LFE

    Audio #3
    ID                          : 4
    Format                      : AC-3
    Format/Info                 : Audio Coding 3
    Commercial name             : Dolby Digital
    Codec ID                    : A_AC3
    Duration                    : 1 h 33 min
    Bit rate mode               : Constant
    Bit rate                    : 640 kb/s
    Channel(s)                  : 6 channels
    Channel layout              : L R C LFE Ls Rs
    Sampling rate               : 48.0 kHz
    Frame rate                  : 31.250 FPS (1536 SPF)
    Compression mode            : Lossy
    Stream size                 : 426 MiB (2%)
    Title                       : Ingles AC3 [CinemaniaHDD]
    Language                    : English
    Service kind                : Complete Main
    Default                     : No
    Forced                      : No

    Text #1
    ID                          : 5
    Format                      : UTF-8
    Codec ID                    : S_TEXT/UTF8
    Codec ID/Info               : UTF-8 Plain Text
    Duration                    : 1 h 11 min
    Bit rate                    : 1 b/s
    Count of elements           : 16
    Stream size                 : 664 Bytes (0%)
    Title                       : Forzados-SRT [CinemaniaHDD]
    Language                    : Spanish
    Default                     : Yes
    Forced                      : No

    Text #2
    ID                          : 6
    Format                      : UTF-8
    Codec ID                    : S_TEXT/UTF8
    Codec ID/Info               : UTF-8 Plain Text
    Duration                    : 1 h 28 min
    Bit rate                    : 67 b/s
    Count of elements           : 1266
    Stream size                 : 43.4 KiB (0%)
    Title                       : Español-SRT [CinemaniaHDD]
    Language                    : Spanish
    Default                     : No
    Forced                      : No

  • Peso: 25.6 GiB

Sinopsis

Descargar Espiral: El juego del miedo continúa (2021) REMUX 1080p Latino. El detective descarado Ezekiel «Zeke» Banks, y su compañero novato, se hacen cargo de una espeluznante investigación sobre varios asesinatos espansosos. Zeke, involuntariamente, se vera atrapado en el morboso juego del asesino.

Español Latino AC3 5.1 BD – TrueHD 7.1 & AC3 5.1 BD

LINKS ACTUALIZADOS!!!

Ficha técnica

Video trailer de la película

Enlaces de descarga

Rip de Bluray

Descargar Saw – Espiral: El juego del miedo continúa (2021) REMUX 1080p Latino




Aportes de DPeliculasHDmega la pass es:dpeliculashdmega.org Aportes de CinemaniaHD la pass es:cinemaniahdd.com
Guardado en : Misterio , Remux , Suspenso , Terror

Películas relacionadas

descargar Saw – Espiral: El juego del miedo continúa (2021) REMUX 1080p Latino Full 1080p 1080p gratis, Saw – Espiral: El juego del miedo continúa (2021) REMUX 1080p Latino Full 1080p mega 1 link, Saw – Espiral: El juego del miedo continúa (2021) REMUX 1080p Latino Full 1080p pelicula completa, descargar Saw – Espiral: El juego del miedo continúa (2021) REMUX 1080p Latino Full 1080p gratis en mega.

Saw – Espiral: El juego del miedo continúa (2021) REMUX 1080p Latino pelicula full hd, Saw – Espiral: El juego del miedo continúa (2021) REMUX 1080p Latino mega latino, Saw – Espiral: El juego del miedo continúa (2021) REMUX 1080p Latino 4k latino, Saw – Espiral: El juego del miedo continúa (2021) REMUX 1080p Latino pelicula completa, Saw – Espiral: El juego del miedo continúa (2021) REMUX 1080p Latino descargar gratis, descargar Saw – Espiral: El juego del miedo continúa (2021) REMUX 1080p Latino pelicula latino, Saw – Espiral: El juego del miedo continúa (2021) REMUX 1080p Latino 1 link mega, Saw – Espiral: El juego del miedo continúa (2021) REMUX 1080p Latino 1 link google drive, Saw – Espiral: El juego del miedo continúa (2021) REMUX 1080p Latino hd 1080p latino.
Comentarios 0