×

¿Problemas para descargar con Mozilla, EDGE? Deshabilita la opción "Abrir vinculos en una pestaña nueva" tal como lo muestra ésta imagen.

Espiral: El juego del miedo continúa (2021) PLACEBO 1080p Latino

305 vistas

Información de Espiral: El juego del miedo continúa (2021) PLACEBO 1080p Latino

Datos de la película

  • Calidad: Full 1080p
  • Audio: Se especifica abajo de la Sinopsis
  • Subtitulos: Español Latino SRT- FORZADOS SRT
  • Resolución: 1920x1080p
  • Formato: MKV
  • Codec: H.264
  • Encoder: Melkor
  • Mediainfo: Clic para Mostrar Datos Ver
  • Espiral (2021) PLACEBO 1080p Latino.mkv
    Format                      : Matroska
    Format version              : Version 4
    File size                   : 6.67 GiB
    Duration                    : 1 h 33 min
    Overall bit rate mode       : Variable
    Overall bit rate            : 10.3 Mb/s
    Movie name                  : Spiral From the Book of Saw (2021) CinemaniaHDD.Net
    Encoded date                : UTC 2021-07-10 06:07:55
    Writing application         : mkvmerge v56.1.0 ('My Friend') 64-bit
    Writing library             : libebml v1.4.2 + libmatroska v1.6.4
    Attachments                 : CINEMANIAHD.png

    Video
    ID                          : 1
    Format                      : AVC
    Format/Info                 : Advanced Video Codec
    Format profile              : High@L4.1
    Format settings             : CABAC / 4 Ref Frames
    Format settings, CABAC      : Yes
    Format settings, Reference  : 4 frames
    Codec ID                    : V_MPEG4/ISO/AVC
    Duration                    : 1 h 33 min
    Bit rate                    : 4 603 kb/s
    Width                       : 1 920 pixels
    Height                      : 1 080 pixels
    Display aspect ratio        : 16:9
    Frame rate mode             : Constant
    Frame rate                  : 23.976 (24000/1001) FPS
    Color space                 : YUV
    Chroma subsampling          : 4:2:0
    Bit depth                   : 8 bits
    Scan type                   : Progressive
    Bits/(Pixel*Frame)          : 0.093
    Stream size                 : 2.99 GiB (45%)
    Title                       : Full HD1080p [CinemaniaHDD]
    Writing library             : x264 core 157 r2935 545de2f
    Encoding settings           : cabac=1 / ref=4 / deblock=1:0:0 / analyse=0x3:0x133 / me=tesa / subme=11 / psy=1 / psy_rd=1.00:0.00 / mixed_ref=1 / me_range=24 / chroma_me=1 / trellis=2 / 8x8dct=1 / cqm=0 / deadzone=21,11 / fast_pskip=0 / chroma_qp_offset=-2 / threads=24 / lookahead_threads=6 / sliced_threads=0 / nr=0 / decimate=1 / interlaced=0 / bluray_compat=0 / constrained_intra=0 / bframes=16 / b_pyramid=2 / b_adapt=2 / b_bias=0 / direct=3 / weightb=1 / open_gop=0 / weightp=2 / keyint=240 / keyint_min=24 / scenecut=40 / intra_refresh=0 / rc_lookahead=60 / rc=crf / mbtree=1 / crf=19.5 / qcomp=0.60 / qpmin=0 / qpmax=69 / qpstep=4 / vbv_maxrate=62500 / vbv_bufsize=78125 / crf_max=0.0 / nal_hrd=none / filler=0 / ip_ratio=1.40 / aq=1:1.00
    Default                     : Yes
    Forced                      : No
    Color range                 : Limited
    Color primaries             : BT.709
    Transfer characteristics    : BT.709
    Matrix coefficients         : BT.709

    Audio #1
    ID                          : 2
    Format                      : AC-3
    Format/Info                 : Audio Coding 3
    Commercial name             : Dolby Digital
    Codec ID                    : A_AC3
    Duration                    : 1 h 33 min
    Bit rate mode               : Constant
    Bit rate                    : 640 kb/s
    Channel(s)                  : 6 channels
    Channel layout              : L R C LFE Ls Rs
    Sampling rate               : 48.0 kHz
    Frame rate                  : 31.250 FPS (1536 SPF)
    Compression mode            : Lossy
    Stream size                 : 426 MiB (6%)
    Title                       : Español Latino [CinemaniaHDD]
    Language                    : Spanish
    Service kind                : Complete Main
    Default                     : Yes
    Forced                      : No

    Audio #2
    ID                          : 3
    Format                      : MLP FBA 16-ch
    Format/Info                 : Meridian Lossless Packing FBA with 16-channel presentation
    Commercial name             : Dolby TrueHD with Dolby Atmos
    Codec ID                    : A_TRUEHD
    Duration                    : 1 h 33 min
    Bit rate mode               : Variable
    Bit rate                    : 4 299 kb/s
    Maximum bit rate            : 9 057 kb/s
    Channel(s)                  : 8 channels
    Channel layout              : L R C LFE Ls Rs Lb Rb
    Sampling rate               : 48.0 kHz
    Frame rate                  : 1 200.000 FPS (40 SPF)
    Compression mode            : Lossless
    Stream size                 : 2.80 GiB (42%)
    Title                       : Ingles THD [CinemaniaHDD]
    Language                    : English
    Default                     : No
    Forced                      : No
    Number of dynamic objects   : 11
    Bed channel count           : 1 channel
    Bed channel configuration   : LFE

    Audio #3
    ID                          : 4
    Format                      : AC-3
    Format/Info                 : Audio Coding 3
    Commercial name             : Dolby Digital
    Codec ID                    : A_AC3
    Duration                    : 1 h 33 min
    Bit rate mode               : Constant
    Bit rate                    : 640 kb/s
    Channel(s)                  : 6 channels
    Channel layout              : L R C LFE Ls Rs
    Sampling rate               : 48.0 kHz
    Frame rate                  : 31.250 FPS (1536 SPF)
    Compression mode            : Lossy
    Stream size                 : 426 MiB (6%)
    Title                       : Ingles AC3 [CinemaniaHDD]
    Language                    : English
    Service kind                : Complete Main
    Default                     : No
    Forced                      : No

    Text #1
    ID                          : 5
    Format                      : UTF-8
    Codec ID                    : S_TEXT/UTF8
    Codec ID/Info               : UTF-8 Plain Text
    Duration                    : 1 h 11 min
    Bit rate                    : 1 b/s
    Count of elements           : 16
    Stream size                 : 664 Bytes (0%)
    Title                       : Forzados-SRT [CinemaniaHDD]
    Language                    : Spanish
    Default                     : Yes
    Forced                      : No

    Text #2
    ID                          : 6
    Format                      : UTF-8
    Codec ID                    : S_TEXT/UTF8
    Codec ID/Info               : UTF-8 Plain Text
    Duration                    : 1 h 28 min
    Bit rate                    : 67 b/s
    Count of elements           : 1266
    Stream size                 : 43.4 KiB (0%)
    Title                       : Español-SRT [CinemaniaHDD]
    Language                    : Spanish
    Default                     : No
    Forced                      : No

    Text #3
    ID                          : 7
    Format                      : UTF-8
    Codec ID                    : S_TEXT/UTF8
    Codec ID/Info               : UTF-8 Plain Text
    Duration                    : 1 h 25 min
    Bit rate                    : 60 b/s
    Count of elements           : 1259
    Stream size                 : 38.1 KiB (0%)
    Title                       : Ingles-SRT [CinemaniaHDD]
    Language                    : Spanish
    Default                     : No
    Forced                      : No

  • Peso: 6.67 GiB

Sinopsis

Descargar Espiral: El juego del miedo continúa (2021) PLACEBO 1080p Latino. El detective descarado Ezekiel «Zeke» Banks, y su compañero novato, se hacen cargo de una espeluznante investigación sobre varios asesinatos espansosos. Zeke, involuntariamente, se vera atrapado en el morboso juego del asesino.

Español Latino AC3 5.1 BD – TrueHD 7.1 & AC3 5.1 BD

Ficha técnica

Video trailer de la película

Enlaces de descarga

Rip de Bluray

Descargar Espiral: El juego del miedo continúa (2021) PLACEBO 1080p Latino




Aportes de DPeliculasHDmega la pass es:dpeliculashdmega.org Aportes de CinemaniaHD la pass es:cinemaniahdd.com

Películas relacionadas

  • Emily la criminal (2022) HD 1080p Latino

    Emily la criminal (2022) HD 1080p Latino

    2022
    Emily la criminal (2022) HD 1080p Latino

    1h 37m 2022

    Descargar Emily la criminal (2022) HD 1080p Latino. Emily, que tiene una deuda estudiantil y está excluida...

    Director: John Patton Ford

    Género: Crimen

    Actores: Theo Rossi

  • Emily la criminal (2022) REMUX 1080p Latino

    Emily la criminal (2022) REMUX 1080p Latino

    2022
    Emily la criminal (2022) REMUX 1080p Latino

    1h 37m 2022

    Descargar Emily la criminal (2022) REMUX 1080p Latino. Emily, que tiene una deuda estudiantil y está...

    Director: John Patton Ford

    Género: Crimen

    Actores: Theo Rossi

  • Herencia peligrosa (2022) HD 1080p Latino

    Herencia peligrosa (2022) HD 1080p Latino

    2022
    Herencia peligrosa (2022) HD 1080p Latino

    1h 34m 2022

    Descargar Herencia peligrosa (2022) HD 1080p Latino. Tres ladrones se hacen con el yate de lujo de una...

    Director: Declan Whitebloom

    Género: Acción

    Actores: Vernon Davis

descargar Espiral: El juego del miedo continúa (2021) PLACEBO 1080p Latino Full 1080p 1080p gratis, Espiral: El juego del miedo continúa (2021) PLACEBO 1080p Latino Full 1080p mega 1 link, Espiral: El juego del miedo continúa (2021) PLACEBO 1080p Latino Full 1080p pelicula completa, descargar Espiral: El juego del miedo continúa (2021) PLACEBO 1080p Latino Full 1080p gratis en mega.

Espiral: El juego del miedo continúa (2021) PLACEBO 1080p Latino pelicula full hd, Espiral: El juego del miedo continúa (2021) PLACEBO 1080p Latino mega latino, Espiral: El juego del miedo continúa (2021) PLACEBO 1080p Latino 4k latino, Espiral: El juego del miedo continúa (2021) PLACEBO 1080p Latino pelicula completa, Espiral: El juego del miedo continúa (2021) PLACEBO 1080p Latino descargar gratis, descargar Espiral: El juego del miedo continúa (2021) PLACEBO 1080p Latino pelicula latino, Espiral: El juego del miedo continúa (2021) PLACEBO 1080p Latino 1 link mega, Espiral: El juego del miedo continúa (2021) PLACEBO 1080p Latino 1 link google drive, Espiral: El juego del miedo continúa (2021) PLACEBO 1080p Latino hd 1080p latino.
Comentarios 0