×

¿Problemas para descargar con Mozilla, EDGE? Deshabilita la opción "Abrir vinculos en una pestaña nueva" tal como lo muestra ésta imagen.

Espiral: El juego del miedo continúa (2021) HD 1080p Latino

291 vistas

Información de Espiral: El juego del miedo continúa (2021) HD 1080p Latino

Datos de la película

  • Calidad: 1080p
  • Audio: Español Latino AC3 5.1 BLURAY - Ingles AC3 5.1 BLURAY
  • Subtitulos: Español Latino SRT- FORZADOS SRT
  • Resolución: 1920x804p
  • Formato: MKV
  • Codec: H.264
  • Encoder: Melkor
  • Mediainfo: Clic para Mostrar Datos Ver
  • Espiral (2021) HD 1080p Latino.mkv
    Format                      : Matroska
    Format version              : Version 4
    File size                   : 2.94 GiB
    Duration                    : 1 h 33 min
    Overall bit rate            : 4 517 kb/s
    Movie name                  : Spiral From the Book of Saw (2021) CinemaniaHDD.Net
    Encoded date                : UTC 2021-07-10 07:18:54
    Writing application         : mkvmerge v56.1.0 ('My Friend') 64-bit
    Writing library             : libebml v1.4.2 + libmatroska v1.6.4
    Attachments                 : CINEMANIAHD.png

    Video
    ID                          : 1
    Format                      : AVC
    Format/Info                 : Advanced Video Codec
    Format profile              : High@L4.1
    Format settings             : CABAC / 5 Ref Frames
    Format settings, CABAC      : Yes
    Format settings, Reference  : 5 frames
    Codec ID                    : V_MPEG4/ISO/AVC
    Duration                    : 1 h 33 min
    Bit rate                    : 3 500 kb/s
    Width                       : 1 920 pixels
    Height                      : 804 pixels
    Display aspect ratio        : 2.40:1
    Frame rate mode             : Constant
    Frame rate                  : 23.976 (24000/1001) FPS
    Color space                 : YUV
    Chroma subsampling          : 4:2:0
    Bit depth                   : 8 bits
    Scan type                   : Progressive
    Bits/(Pixel*Frame)          : 0.095
    Stream size                 : 2.23 GiB (76%)
    Title                       : HD1080p [CinemaniaHDD]
    Writing library             : x264 core 157 r2935 545de2f
    Encoding settings           : cabac=1 / ref=5 / deblock=1:-1:-1 / analyse=0x3:0x113 / me=hex / subme=8 / psy=1 / psy_rd=1.00:0.15 / mixed_ref=1 / me_range=16 / chroma_me=1 / trellis=2 / 8x8dct=1 / cqm=0 / deadzone=21,11 / fast_pskip=1 / chroma_qp_offset=-3 / threads=24 / lookahead_threads=4 / sliced_threads=0 / nr=0 / decimate=1 / interlaced=0 / bluray_compat=0 / constrained_intra=0 / bframes=3 / b_pyramid=2 / b_adapt=1 / b_bias=0 / direct=3 / weightb=1 / open_gop=0 / weightp=2 / keyint=240 / keyint_min=24 / scenecut=40 / intra_refresh=0 / rc_lookahead=50 / rc=abr / mbtree=1 / bitrate=3500 / ratetol=1.0 / qcomp=0.60 / qpmin=0 / qpmax=69 / qpstep=4 / vbv_maxrate=62500 / vbv_bufsize=78125 / nal_hrd=none / filler=0 / ip_ratio=1.40 / aq=1:1.00
    Default                     : Yes
    Forced                      : Yes
    Color range                 : Limited
    Color primaries             : BT.709
    Transfer characteristics    : BT.709
    Matrix coefficients         : BT.709

    Audio #1
    ID                          : 2
    Format                      : AC-3
    Format/Info                 : Audio Coding 3
    Commercial name             : Dolby Digital
    Codec ID                    : A_AC3
    Duration                    : 1 h 33 min
    Bit rate mode               : Constant
    Bit rate                    : 640 kb/s
    Channel(s)                  : 6 channels
    Channel layout              : L R C LFE Ls Rs
    Sampling rate               : 48.0 kHz
    Frame rate                  : 31.250 FPS (1536 SPF)
    Compression mode            : Lossy
    Delay relative to video     : -5 ms
    Stream size                 : 426 MiB (14%)
    Title                       : Español Latino [CinemaniaHDD]
    Language                    : Spanish
    Service kind                : Complete Main
    Default                     : Yes
    Forced                      : Yes

    Audio #2
    ID                          : 3
    Format                      : AC-3
    Format/Info                 : Audio Coding 3
    Commercial name             : Dolby Digital
    Codec ID                    : A_AC3
    Duration                    : 1 h 33 min
    Bit rate mode               : Constant
    Bit rate                    : 448 kb/s
    Channel(s)                  : 6 channels
    Channel layout              : L R C LFE Ls Rs
    Sampling rate               : 48.0 kHz
    Frame rate                  : 31.250 FPS (1536 SPF)
    Compression mode            : Lossy
    Delay relative to video     : -5 ms
    Stream size                 : 298 MiB (10%)
    Title                       : Ingles [CinemaniaHDD]
    Language                    : English
    Service kind                : Complete Main
    Default                     : No
    Forced                      : No

    Text #1
    ID                          : 4
    Format                      : UTF-8
    Codec ID                    : S_TEXT/UTF8
    Codec ID/Info               : UTF-8 Plain Text
    Duration                    : 1 h 11 min
    Bit rate                    : 1 b/s
    Count of elements           : 16
    Stream size                 : 664 Bytes (0%)
    Title                       : Forzados-SRT [CinemaniaHDD]
    Language                    : Spanish
    Default                     : Yes
    Forced                      : Yes

    Text #2
    ID                          : 5
    Format                      : UTF-8
    Codec ID                    : S_TEXT/UTF8
    Codec ID/Info               : UTF-8 Plain Text
    Duration                    : 1 h 28 min
    Bit rate                    : 67 b/s
    Count of elements           : 1266
    Stream size                 : 43.4 KiB (0%)
    Title                       : Español-SRT [CinemaniaHDD]
    Language                    : Spanish
    Default                     : No
    Forced                      : No

    Text #3
    ID                          : 6
    Format                      : UTF-8
    Codec ID                    : S_TEXT/UTF8
    Codec ID/Info               : UTF-8 Plain Text
    Duration                    : 1 h 25 min
    Bit rate                    : 60 b/s
    Count of elements           : 1259
    Stream size                 : 38.1 KiB (0%)
    Title                       : Ingles-SRT [CinemaniaHDD]
    Language                    : Spanish
    Default                     : No
    Forced                      : No

  • Peso: 2.94 GiB

Sinopsis

Descargar Espiral: El juego del miedo continúa (2021) HD 1080p Latino. El detective descarado Ezekiel «Zeke» Banks, y su compañero novato, se hacen cargo de una espeluznante investigación sobre varios asesinatos espansosos. Zeke, involuntariamente, se vera atrapado en el morboso juego del asesino.

Ficha técnica

Video trailer de la película

Enlaces de descarga

Rip de Bluray

Descargar Espiral: El juego del miedo continúa (2021) HD 1080p Latino




Aportes de DPeliculasHDmega la pass es:dpeliculashdmega.org Aportes de CinemaniaHD la pass es:cinemaniahdd.com
Guardado en : HD 1080p , Misterio , Suspenso , Terror

Películas relacionadas

  • Transfusion (2023) WEB-DL 4K UHD HDR Latino

    Transfusion (2023) WEB-DL 4K UHD HDR Latino

    2023
    Transfusion (2023) WEB-DL 4K UHD HDR Latino

    1h 45m 2023

    Descargar Transfusion (2023) WEB-DL 4K UHD HDR Latino. Un antiguo agente de las Fuerzas Especiales se...

    Director: Matt Nable

    Género: 4K HDR

    Actores: Trystan Go

  • Transfusion (2023) WEB-DL 1080p Latino

    Transfusion (2023) WEB-DL 1080p Latino

    2023
    Transfusion (2023) WEB-DL 1080p Latino

    1h 45m 2023

    Descargar Transfusion (2023) WEB-DL 1080p Latino. Un antiguo agente de las Fuerzas Especiales se ve empujado...

    Director: Matt Nable

    Género: Crimen

    Actores: Trystan Go

  • Asústame (2020) HD 1080p Latino

    Asústame (2020) HD 1080p Latino

    2020
    Asústame (2020) HD 1080p Latino

    1h 44m 2020

    Descargar Asústame (2020) HD 1080p Latino. Durante un corte de energía, dos extraños cuentan historias...

    Director: Josh Ruben

    Género: Comedia

    Actores: Rebecca Drysdale

descargar Espiral: El juego del miedo continúa (2021) HD 1080p Latino 1080p 1080p gratis, Espiral: El juego del miedo continúa (2021) HD 1080p Latino 1080p mega 1 link, Espiral: El juego del miedo continúa (2021) HD 1080p Latino 1080p pelicula completa, descargar Espiral: El juego del miedo continúa (2021) HD 1080p Latino 1080p gratis en mega.

Espiral: El juego del miedo continúa (2021) HD 1080p Latino pelicula full hd, Espiral: El juego del miedo continúa (2021) HD 1080p Latino mega latino, Espiral: El juego del miedo continúa (2021) HD 1080p Latino 4k latino, Espiral: El juego del miedo continúa (2021) HD 1080p Latino pelicula completa, Espiral: El juego del miedo continúa (2021) HD 1080p Latino descargar gratis, descargar Espiral: El juego del miedo continúa (2021) HD 1080p Latino pelicula latino, Espiral: El juego del miedo continúa (2021) HD 1080p Latino 1 link mega, Espiral: El juego del miedo continúa (2021) HD 1080p Latino 1 link google drive, Espiral: El juego del miedo continúa (2021) HD 1080p Latino hd 1080p latino.
Comentarios 0