×

¿Problemas para descargar con Mozilla, EDGE? Deshabilita la opción "Abrir vinculos en una pestaña nueva" tal como lo muestra ésta imagen.

Espada de confianza (2019) WEB-DL 1080p Latino

298 vistas

Información de Espada de confianza (2019) WEB-DL 1080p Latino

Datos de la película

  • Calidad: WEBDL
  • Audio: Español Latino AC3 2.0
  • Subtitulos: No
  • Resolución: 1920x950
  • Formato: MKV
  • Codec: H.264
  • Encoder: CinemaniaHD
  • Mediainfo: Clic para Mostrar Datos Ver
  • Sword Of Trust (2019) WEB-DL 1080p Latino.mkv
    Format                      : Matroska
    Format version              : Version 4
    File size                   : 3.43 GiB
    Duration                    : 1 h 29 min
    Overall bit rate            : 5 522 kb/s
    Encoded date                : UTC 2020-05-04 17:52:05
    Writing application         : mkvmerge v42.0.0 ('Overtime') 64-bit
    Writing library             : libebml v1.3.10 + libmatroska v1.5.2

    Video
    ID                          : 1
    Format                      : AVC
    Format/Info                 : Advanced Video Codec
    Format profile              : High@L4
    Format settings             : CABAC / 4 Ref Frames
    Format settings, CABAC      : Yes
    Format settings, ReFrames   : 4 frames
    Codec ID                    : V_MPEG4/ISO/AVC
    Duration                    : 1 h 29 min
    Bit rate                    : 5 264 kb/s
    Width                       : 1 920 pixels
    Height                      : 950 pixels
    Display aspect ratio        : 2.021
    Frame rate mode             : Constant
    Frame rate                  : 23.976 (23976/1000) FPS
    Color space                 : YUV
    Chroma subsampling          : 4:2:0
    Bit depth                   : 8 bits
    Scan type                   : Progressive
    Bits/(Pixel*Frame)          : 0.120
    Stream size                 : 3.27 GiB (95%)
    Language                    : English
    Default                     : Yes
    Forced                      : No
    Color range                 : Limited
    Color primaries             : BT.709
    Transfer characteristics    : BT.709
    Matrix coefficients         : BT.709

    Audio
    ID                          : 2
    Format                      : AC-3
    Format/Info                 : Audio Coding 3
    Commercial name             : Dolby Digital
    Codec ID                    : A_AC3
    Duration                    : 1 h 29 min
    Bit rate mode               : Constant
    Bit rate                    : 256 kb/s
    Channel(s)                  : 2 channels
    Channel layout              : L R
    Sampling rate               : 48.0 kHz
    Frame rate                  : 31.250 FPS (1536 SPF)
    Bit depth                   : 16 bits
    Compression mode            : Lossy
    Delay relative to video     : -42 ms
    Stream size                 : 163 MiB (5%)
    Language                    : Spanish
    Service kind                : Complete Main
    Default                     : Yes
    Forced                      : No

    Menu
    00:00:00.000                : en:1
    00:17:03.231                : en:2
    00:30:25.407                : en:3
    00:38:57.334                : en:4
    00:46:40.922                : en:5
    00:58:15.116                : en:6
    01:06:34.824                : en:7
    01:14:30.299                : en:8
    01:25:26.121                : en:9

  • Peso: 3.43 GiB

Sinopsis

Cuando Cynthia y Mary (Jillian Bell y Michaela Watkins) acuden a recoger la herencia de la abuela difunta de Cynthia, el objeto que encuentran es una espada antigua que al parecer es la única prueba física que existe de que el Sur ganó la Guerra Civil. Ambas deciden tratan de empeñar la espada en una tienda local regentada por un excéntrico vendedor (Marc Maron) y por su hijo Nathaniel (Jon Bass). Cuando descubren que el objeto es una auténtica reliquia que puede ser vendida en el mercado negro, las dos parejas se ponen manos a la obra para encontrar al mejor postor.

Ficha técnica

Video trailer de la película

Enlaces de descarga

Rip de Bluray

Descargar Espada de confianza (2019) WEB-DL 1080p Latino




Aportes de DPeliculasHDmega la pass es:dpeliculashdmega.org Aportes de CinemaniaHD la pass es:cinemaniahdd.com
Guardado en : Comedia , Drama

Películas relacionadas

  • El discurso del Rey (2010) 1080p Latino

    El discurso del Rey (2010) 1080p Latino

    2010
    El discurso del Rey (2010) 1080p Latino

    1h 58m 2010

    Descargar El discurso del Rey (2010) 1080p Latino. El duque de York se convirtió en rey de Gran Bretaña...

    Director: Tom Hooper

    Género: Drama

    Actores: Tony Earnshaw

  • El discurso del Rey (2010) Full HD 1080p Latino

    El discurso del Rey (2010) Full HD 1080p Latino

    2010
    El discurso del Rey (2010) Full HD 1080p Latino

    1h 58m 2010

    Descargar El discurso del Rey (2010) Full HD 1080p Latino. El duque de York se convirtió en rey de Gran...

    Director: Tom Hooper

    Género: Drama

    Actores: Tony Earnshaw

  • El discurso del Rey (2010) REMUX 1080p Latino

    El discurso del Rey (2010) REMUX 1080p Latino

    2010
    El discurso del Rey (2010) REMUX 1080p Latino

    1h 58m 2010

    Descargar El discurso del Rey (2010) REMUX 1080p Latino. El duque de York se convirtió en rey de Gran...

    Director: Tom Hooper

    Género: Drama

    Actores: Tony Earnshaw

  • 8 Mile (2002) REMUX 4K HDR Latino – CMHDD

    8 Mile (2002) REMUX 4K HDR Latino – CMHDD

    2002
    8 Mile (2002) REMUX 4K HDR Latino – CMHDD

    1h 50m 2002

    Detroit, 1995. La promesa de potencia industrial se ha transformado en un hervidero de conflictos económicos...

    Director: Michael J. Moore

    Género: Drama

    Actores: Xzibit

descargar Espada de confianza (2019) WEB-DL 1080p Latino WEBDL 1080p gratis, Espada de confianza (2019) WEB-DL 1080p Latino WEBDL mega 1 link, Espada de confianza (2019) WEB-DL 1080p Latino WEBDL pelicula completa, descargar Espada de confianza (2019) WEB-DL 1080p Latino WEBDL gratis en mega.

Espada de confianza (2019) WEB-DL 1080p Latino pelicula full hd, Espada de confianza (2019) WEB-DL 1080p Latino mega latino, Espada de confianza (2019) WEB-DL 1080p Latino 4k latino, Espada de confianza (2019) WEB-DL 1080p Latino pelicula completa, Espada de confianza (2019) WEB-DL 1080p Latino descargar gratis, descargar Espada de confianza (2019) WEB-DL 1080p Latino pelicula latino, Espada de confianza (2019) WEB-DL 1080p Latino 1 link mega, Espada de confianza (2019) WEB-DL 1080p Latino 1 link google drive, Espada de confianza (2019) WEB-DL 1080p Latino hd 1080p latino.
Comentarios 0