Escuela Nocturnas (2018) WEBDL 1080p Latino

1.637 vistas
1 estrella2 estrellas3 estrellas4 estrellas5 estrellas (3 votos, promedio: 3,67 de 5)
Cargando…

Información de Escuela Nocturnas (2018) WEBDL 1080p Latino

Datos de la película

  • Calidad: WEBDL
  • Audio: Español Latino AC3 2.0 iTunes - Ingles AC3 5.1 iTunes
  • Subtitulos: Español Latino SRT- FORZADOS SRT
  • Resolución: 1920x802
  • Formato: MKV
  • Codec: H.264
  • Encoder: EVO
  • Mediainfo: Clic para Mostrar Datos Ver
  • Night School (2018) WEBDL 1080p Latino.mkv
    Format                      : Matroska
    Format version              : Version 4
    File size                   : 4.19 GiB
    Duration                    : 1 h 56 min
    Overall bit rate            : 5 173 kb/s
    Movie name                  : CinemaniaHDD.net
    Encoded date                : UTC 2018-12-11 21:07:11
    Writing application         : mkvmerge v28.2.0 ('The Awakening') 64-bit
    Writing library             : libebml v1.3.6 + libmatroska v1.4.9

    Video
    ID                          : 1
    Format                      : AVC
    Format/Info                 : Advanced Video Codec
    Format profile              : [email protected]
    Format settings             : CABAC / 5 Ref Frames
    Format settings, CABAC      : Yes
    Format settings, ReFrames   : 5 frames
    Codec ID                    : V_MPEG4/ISO/AVC
    Duration                    : 1 h 56 min
    Bit rate                    : 4 531 kb/s
    Width                       : 1 920 pixels
    Height                      : 802 pixels
    Display aspect ratio        : 2.40:1
    Frame rate mode             : Constant
    Frame rate                  : 23.976 FPS
    Color space                 : YUV
    Chroma subsampling          : 4:2:0
    Bit depth                   : 8 bits
    Scan type                   : Progressive
    Bits/(Pixel*Frame)          : 0.123
    Stream size                 : 3.67 GiB (88%)
    Language                    : English
    Default                     : Yes
    Forced                      : No
    Color range                 : Limited
    Color primaries             : BT.709
    Transfer characteristics    : BT.709
    Matrix coefficients         : BT.709

    Audio #1
    ID                          : 2
    Format                      : AC-3
    Format/Info                 : Audio Coding 3
    Commercial name             : Dolby Digital
    Codec ID                    : A_AC3
    Duration                    : 1 h 56 min
    Bit rate mode               : Constant
    Bit rate                    : 256 kb/s
    Channel(s)                  : 2 channels
    Channel layout              : L R
    Sampling rate               : 48.0 kHz
    Frame rate                  : 31.250 FPS (1536 SPF)
    Bit depth                   : 16 bits
    Compression mode            : Lossy
    Delay relative to video     : -42 ms
    Stream size                 : 212 MiB (5%)
    Language                    : Spanish
    Service kind                : Complete Main
    Default                     : Yes
    Forced                      : No

    Audio #2
    ID                          : 3
    Format                      : AC-3
    Format/Info                 : Audio Coding 3
    Commercial name             : Dolby Digital
    Codec ID                    : A_AC3
    Duration                    : 1 h 56 min
    Bit rate mode               : Constant
    Bit rate                    : 384 kb/s
    Channel(s)                  : 6 channels
    Channel layout              : L R C LFE Ls Rs
    Sampling rate               : 48.0 kHz
    Frame rate                  : 31.250 FPS (1536 SPF)
    Bit depth                   : 16 bits
    Compression mode            : Lossy
    Delay relative to video     : -42 ms
    Stream size                 : 319 MiB (7%)
    Language                    : English
    Service kind                : Complete Main
    Default                     : No
    Forced                      : No

    Text #1
    ID                          : 4
    Format                      : UTF-8
    Codec ID                    : S_TEXT/UTF8
    Codec ID/Info               : UTF-8 Plain Text
    Duration                    : 1 h 50 min
    Bit rate                    : 87 b/s
    Count of elements           : 2622
    Stream size                 : 70.8 KiB (0%)
    Language                    : Spanish
    Default                     : Yes
    Forced                      : No

    Text #2
    ID                          : 5
    Format                      : UTF-8
    Codec ID                    : S_TEXT/UTF8
    Codec ID/Info               : UTF-8 Plain Text
    Duration                    : 1 h 30 min
    Bit rate                    : 0 b/s
    Count of elements           : 13
    Stream size                 : 374 Bytes (0%)
    Language                    : Spanish
    Default                     : No
    Forced                      : No

    Menu
    00:00:00.000                : en:1
    00:04:39.279                : en:2
    00:08:26.923                : en:3
    00:13:21.384                : en:4
    00:19:10.231                : en:5
    00:27:00.867                : en:6
    00:30:18.313                : en:7
    00:38:09.742                : en:8
    00:42:03.225                : en:9
    00:47:36.473                : en:10
    00:50:52.835                : en:11
    01:02:33.201                : en:12
    01:08:57.417                : en:13
    01:15:39.944                : en:14
    01:19:41.267                : en:15
    01:25:53.639                : en:16
    01:33:47.654                : en:17
    01:38:42.949                : en:18
    01:44:20.411                : en:19
    01:51:22.708                : en:20

  • Peso: 4.19 GiB

Sinopsis

A Teddy Walker (Kevin Hart) le acaban de decir que tiene dislexia, además de otras discapacidades de aprendizaje. Para superar este problema y conseguir un trabajo mejor, Teddy decide ir a la escuela nocturna. Allí se juntará con un grupo de inadaptados, obligados a asistir a clases para adultos para conseguir un objetivo inalcanzable: aprobar el examen de educación secundaria. Eso sí, no será fácil porque van a comprimir lo aprendido en 4 años de instituto en un solo semestre. Además, Carrie (Tiffany Haddish) va a ser su profesora, y no será para nada una enseñanza convencional. Teddy y compañía serán capaces de cualquier cosa con tal de aprobar la secundaria.

Comedia dirigida por Malcolm D. Lee (Plan de Chicas, La barbería: Todo el mundo necesita un corte) y protagonizada por el actor y humorista Kevin Hart (Jumanji: Bienvenidos a la jungla, Un espía y medio), que además es uno de los guionistas del filme. Completan el reparto Tiffany Haddish (Plan de chicas), Mary Lynn Rajskub (Wilson), Rob Riggle (12 valientes), Taran Killam (Asesinos internacionales), Ben Schwartz (Parks and Recreation), Al Madrigal (Descontroladas) y Anne Winters (Por trece razones).

Ficha técnica

  • Titulo original: Night School
  • Fecha de lanzamiento: 27-09-2018 (United States of America)
  • Director: Malcolm D. Lee
  • Género: Comedia
  • Puntuación: 3.7 3 votos
  • Duración:
    1h 51m

Video trailer de la película

Enlaces de descarga

Rip de Bluray

Descargar Escuela Nocturnas (2018) WEBDL 1080p Latino




Aportes de DPeliculasHDmega la pass es:dpeliculashdmega.org Aportes de CinemaniaHD la pass es:cinemaniahdd.com
Guardado en : Comedia

Películas relacionadas

  • Campeones (2018) HD 1080p Español

    2018
    Campeones (2018) HD 1080p Español

    0.0 2h 4m 2018

    Descargar Campeones (2018) HD 1080p Español, Mega, Google Drive, Torrent. Marco, un entrenador profesional...

    Director: Javier Fesser

    Género: Castellano

    Actores: Yiyo Alonso

  • Sorry For Your Loss (2018) AMZN 1080p Latino

    2018
    Sorry For Your Loss (2018) AMZN 1080p Latino

    5.0 1h 40m 2018

    Sorry for Your Loss es una comedia oscura que narra la historia de una joven viuda Leigh Gibbs. Para...

    Director: Collin Friesen

    Género: Comedia

    Actores: Sandrine Holt

  • Bernie the Dolphin (2018) WEB-DL 1080p Latino

    2018
    Bernie the Dolphin (2018) WEB-DL 1080p Latino

    0.0 1h 28m 2018

    Ubicada en San Agustín, Florida, trata sobre un hermano y una hermana que se hacen amigos de un delfín...

    Director: Kirk Harris

    Género: Acción

    Actores: Stelio Savante

  • Grace and Frankie (2019) Temporada 5 NF 1080p Latino

    2015
    Grace and Frankie (2019) Temporada 5 NF 1080p Latino

    0.0 0h 32m 2015

    Esta comedia se centra en dos antiguas rivales, Grace (Jane Fonda) y Frankie (Lily Tomlin), y el cambio...

    Director: Marta Kauffman

    Género: Comedia

    Actores: Tim Bagley

Comentarios 0