×

¿Problemas para descargar con Mozilla, EDGE? Deshabilita la opción "Abrir vinculos en una pestaña nueva" tal como lo muestra ésta imagen.

Escuela de Miedo (2020) REMUX 1080p Latino

232 vistas

Información de Escuela de Miedo (2020) REMUX 1080p Latino

Datos de la película

  • Calidad: Full 1080p
  • Audio: Español Latino DTS 5.1 BLURAY
  • Subtitulos: No
  • Resolución: 1920x1080p
  • Formato: MKV
  • Codec: H.264
  • Encoder: Melkor
  • Mediainfo: Clic para Mostrar Datos Ver
  • Escuela De Miedo (2020) REMUX 1080p Latino.mkv
    Format                      : Matroska
    Format version              : Version 4
    File size                   : 17.9 GiB
    Duration                    : 1 h 25 min
    Overall bit rate mode       : Variable
    Overall bit rate            : 30.1 Mb/s
    Movie name                  : Cranston Academy: Monster Zone (2020) CinemaniaHDD.Net
    Encoded date                : UTC 2021-01-14 21:13:03
    Writing application         : mkvmerge v51.0.0 ('I Wish') 64-bit
    Writing library             : libebml v1.4.0 + libmatroska v1.6.2
    Attachments                 : CINEMANIAHD.png

    Video
    ID                          : 1
    Format                      : AVC
    Format/Info                 : Advanced Video Codec
    Format profile              : High@L4.1
    Format settings             : CABAC / 4 Ref Frames
    Format settings, CABAC      : Yes
    Format settings, Reference  : 4 frames
    Codec ID                    : V_MPEG4/ISO/AVC
    Duration                    : 1 h 25 min
    Bit rate mode               : Variable
    Bit rate                    : 24.7 Mb/s
    Maximum bit rate            : 30.0 Mb/s
    Width                       : 1 920 pixels
    Height                      : 1 080 pixels
    Display aspect ratio        : 16:9
    Frame rate mode             : Constant
    Frame rate                  : 23.976 (24000/1001) FPS
    Color space                 : YUV
    Chroma subsampling          : 4:2:0
    Bit depth                   : 8 bits
    Scan type                   : Progressive
    Bits/(Pixel*Frame)          : 0.497
    Stream size                 : 14.7 GiB (82%)
    Title                       : REMUX HD1080p [CinemaniaHDD]
    Default                     : Yes
    Forced                      : Yes
    Color range                 : Limited
    Color primaries             : BT.709
    Transfer characteristics    : BT.709
    Matrix coefficients         : BT.709

    Audio #1
    ID                          : 2
    Format                      : DTS XLL
    Format/Info                 : Digital Theater Systems
    Commercial name             : DTS-HD Master Audio
    Codec ID                    : A_DTS
    Duration                    : 1 h 25 min
    Bit rate mode               : Variable
    Bit rate                    : 3 931 kb/s
    Channel(s)                  : 6 channels
    Channel layout              : C L R Ls Rs LFE
    Sampling rate               : 48.0 kHz
    Frame rate                  : 93.750 FPS (512 SPF)
    Bit depth                   : 24 bits
    Compression mode            : Lossless
    Stream size                 : 2.34 GiB (13%)
    Title                       : Español Latino [CinemaniaHDD]
    Language                    : Spanish
    Default                     : Yes
    Forced                      : Yes

    Audio #2
    ID                          : 3
    Format                      : DTS
    Format/Info                 : Digital Theater Systems
    Codec ID                    : A_DTS
    Duration                    : 1 h 25 min
    Bit rate mode               : Constant
    Bit rate                    : 1 509 kb/s
    Channel(s)                  : 6 channels
    Channel layout              : C L R Ls Rs LFE
    Sampling rate               : 48.0 kHz
    Frame rate                  : 93.750 FPS (512 SPF)
    Bit depth                   : 24 bits
    Compression mode            : Lossy
    Stream size                 : 920 MiB (5%)
    Title                       : Español Latino Core DTS [CinemaniaHDD]
    Language                    : Spanish
    Default                     : No
    Forced                      : No

    Menu
    00:00:00.000                : en:Chapter 01
    00:08:15.662                : en:Chapter 02
    00:15:26.926                : en:Chapter 03
    00:21:39.840                : en:Chapter 04
    00:30:10.267                : en:Chapter 05
    00:39:03.633                : en:Chapter 06
    00:45:45.076                : en:Chapter 07
    00:51:32.381                : en:Chapter 08
    00:57:48.632                : en:Chapter 09
    01:02:32.749                : en:Chapter 10
    01:08:46.497                : en:Chapter 11
    01:16:16.197                : en:Chapter 12

  • Peso: 17.9 GiB

Sinopsis

Descargar Escuela de Miedo (2020) REMUX 1080p Latino. Un inteligente estudiante de secundaria de 15 años es trasladado inesperadamente a un internado donde abre un portal de monstruos de otra dimensión.

Ficha técnica

  • Titulo original: Cranston Academy: Monster Zone
  • Fecha de lanzamiento: 29-04-2020 (Canada, Mexico, United Kingdom)
  • Director: Leopoldo Aguilar
  • Género: Animación, Remux

Video trailer de la película

Enlaces de descarga

Rip de Bluray

Descargar Escuela de Miedo (2020) REMUX 1080p Latino




Aportes de DPeliculasHDmega la pass es:dpeliculashdmega.org Aportes de CinemaniaHD la pass es:cinemaniahdd.com
Guardado en : Animación , Remux

Películas relacionadas

  • Noche sin paz (2022) REMUX 1080p Latino

    Noche sin paz (2022) REMUX 1080p Latino

    2022
    Noche sin paz (2022) REMUX 1080p Latino

    1h 41m 2022

    Descargar Noche sin paz (2022) REMUX 1080p Latino. Cuando un equipo de mercenarios irrumpe en Nochebuena...

    Director: Tyshana Hobson

    Género: Acción

    Actores: Yoon Cha-Lee

  • Si no despierto (2017) BD-USA REMUX 1080p Latino

    Si no despierto (2017) BD-USA REMUX 1080p Latino

    2017
    Si no despierto (2017) BD-USA REMUX 1080p Latino

    1h 39m 2017

    Descargar Si no despierto (2017) BD-USA REMUX 1080p Latino. En principio el 12 de febrero es sólo otro...

    Director: Ry Russo-Young

    Género: Drama

    Actores: Zoey Deutch

  • Si no despierto (2017) BD-EUR REMUX 1080p Latino

    Si no despierto (2017) BD-EUR REMUX 1080p Latino

    2017
    Si no despierto (2017) BD-EUR REMUX 1080p Latino

    1h 39m 2017

    Descargar Si no despierto (2017) BD-EUR REMUX 1080p Latino. En principio el 12 de febrero es sólo otro...

    Director: Ry Russo-Young

    Género: Drama

    Actores: Zoey Deutch

  • La Princesa Prometida (1987) REMUX 1080p Latino

    La Princesa Prometida (1987) REMUX 1080p Latino

    1987
    La Princesa Prometida (1987) REMUX 1080p Latino

    1h 38m 1987

    Descargar La Princesa Prometida (1987) REMUX 1080p Latino. Después de buscar fortuna durante cinco años,...

    Director: Rob Reiner

    Género: Aventura

    Actores: Willy DeVille

  • El vidente (2007) REMUX 1080p Latino

    El vidente (2007) REMUX 1080p Latino

    2007
    El vidente (2007) REMUX 1080p Latino

    1h 36m 2007

    Descargar El vidente (2007) REMUX 1080p Latino. Cris Johnson es un mago de Las Vegas bendecido con un...

    Director: Luca Kouimelis

    Género: Acción

    Actores: Tory Kittles

descargar Escuela de Miedo (2020) REMUX 1080p Latino Full 1080p 1080p gratis, Escuela de Miedo (2020) REMUX 1080p Latino Full 1080p mega 1 link, Escuela de Miedo (2020) REMUX 1080p Latino Full 1080p pelicula completa, descargar Escuela de Miedo (2020) REMUX 1080p Latino Full 1080p gratis en mega.

Escuela de Miedo (2020) REMUX 1080p Latino pelicula full hd, Escuela de Miedo (2020) REMUX 1080p Latino mega latino, Escuela de Miedo (2020) REMUX 1080p Latino 4k latino, Escuela de Miedo (2020) REMUX 1080p Latino pelicula completa, Escuela de Miedo (2020) REMUX 1080p Latino descargar gratis, descargar Escuela de Miedo (2020) REMUX 1080p Latino pelicula latino, Escuela de Miedo (2020) REMUX 1080p Latino 1 link mega, Escuela de Miedo (2020) REMUX 1080p Latino 1 link google drive, Escuela de Miedo (2020) REMUX 1080p Latino hd 1080p latino.
Comentarios 0