Escuela de Miedo (2020) PLACEBO Full HD 1080p Latino

70 vistas
1 estrella2 estrellas3 estrellas4 estrellas5 estrellas (Ninguna valoración todavía)
Cargando...

Información de Escuela de Miedo (2020) PLACEBO Full HD 1080p Latino

Datos de la película

  • Calidad: Full 1080p
  • Audio: Español Latino DTS 5.1 BLURAY
  • Subtitulos: No
  • Resolución: 1920x1080p
  • Formato: MKV
  • Codec: H.264
  • Encoder: Melkor
  • Mediainfo: Clic para Mostrar Datos Ver
  • Escuela De Miedo (2020) PLACEBO Full HD 1080p Latino.mkv
    Format                      : Matroska
    Format version              : Version 4
    File size                   : 3.14 GiB
    Duration                    : 1 h 25 min
    Overall bit rate            : 5 272 kb/s
    Movie name                  : Cranston Academy: Monster Zone (2020) CinemaniaHDD.Net
    Encoded date                : UTC 2021-01-14 21:20:22
    Writing application         : mkvmerge v51.0.0 ('I Wish') 64-bit
    Writing library             : libebml v1.4.0 + libmatroska v1.6.2
    Attachments                 : CINEMANIAHD.png

    Video
    ID                          : 1
    Format                      : AVC
    Format/Info                 : Advanced Video Codec
    Format profile              : High@L4.1
    Format settings             : CABAC / 4 Ref Frames
    Format settings, CABAC      : Yes
    Format settings, Reference  : 4 frames
    Codec ID                    : V_MPEG4/ISO/AVC
    Duration                    : 1 h 25 min
    Bit rate                    : 3 761 kb/s
    Width                       : 1 920 pixels
    Height                      : 1 080 pixels
    Display aspect ratio        : 16:9
    Frame rate mode             : Constant
    Frame rate                  : 23.976 (24000/1001) FPS
    Color space                 : YUV
    Chroma subsampling          : 4:2:0
    Bit depth                   : 8 bits
    Scan type                   : Progressive
    Bits/(Pixel*Frame)          : 0.076
    Stream size                 : 2.24 GiB (71%)
    Title                       : Full HD1080p [CinemaniaHDD]
    Writing library             : x264 core 157 r2935 545de2f
    Encoding settings           : cabac=1 / ref=4 / deblock=1:0:0 / analyse=0x3:0x133 / me=tesa / subme=11 / psy=1 / psy_rd=1.00:0.00 / mixed_ref=1 / me_range=24 / chroma_me=1 / trellis=2 / 8x8dct=1 / cqm=0 / deadzone=21,11 / fast_pskip=0 / chroma_qp_offset=-2 / threads=24 / lookahead_threads=6 / sliced_threads=0 / nr=0 / decimate=1 / interlaced=0 / bluray_compat=0 / constrained_intra=0 / bframes=16 / b_pyramid=2 / b_adapt=2 / b_bias=0 / direct=3 / weightb=1 / open_gop=0 / weightp=2 / keyint=240 / keyint_min=24 / scenecut=40 / intra_refresh=0 / rc_lookahead=60 / rc=crf / mbtree=1 / crf=19.0 / qcomp=0.60 / qpmin=0 / qpmax=69 / qpstep=4 / vbv_maxrate=62500 / vbv_bufsize=78125 / crf_max=0.0 / nal_hrd=none / filler=0 / ip_ratio=1.40 / aq=1:1.00
    Default                     : Yes
    Forced                      : Yes
    Color range                 : Limited
    Color primaries             : BT.709
    Transfer characteristics    : BT.709
    Matrix coefficients         : BT.709

    Audio
    ID                          : 2
    Format                      : DTS
    Format/Info                 : Digital Theater Systems
    Codec ID                    : A_DTS
    Duration                    : 1 h 25 min
    Bit rate mode               : Constant
    Bit rate                    : 1 509 kb/s
    Channel(s)                  : 6 channels
    Channel layout              : C L R Ls Rs LFE
    Sampling rate               : 48.0 kHz
    Frame rate                  : 93.750 FPS (512 SPF)
    Bit depth                   : 24 bits
    Compression mode            : Lossy
    Stream size                 : 920 MiB (29%)
    Title                       : Español Latino [CinemaniaHDD]
    Language                    : Spanish
    Default                     : Yes
    Forced                      : Yes

    Menu
    00:00:00.000                : en:Chapter 01
    00:08:15.662                : en:Chapter 02
    00:15:26.926                : en:Chapter 03
    00:21:39.840                : en:Chapter 04
    00:30:10.267                : en:Chapter 05
    00:39:03.633                : en:Chapter 06
    00:45:45.076                : en:Chapter 07
    00:51:32.381                : en:Chapter 08
    00:57:48.632                : en:Chapter 09
    01:02:32.749                : en:Chapter 10
    01:08:46.497                : en:Chapter 11
    01:16:16.197                : en:Chapter 12

  • Peso: 3.14 GiB

Sinopsis

Descargar Escuela de Miedo (2020) PLACEBO Full HD 1080p Latino. Un inteligente estudiante de secundaria de 15 años es trasladado inesperadamente a un internado donde abre un portal de monstruos de otra dimensión.

Ficha técnica

Video trailer de la película

Enlaces de descarga

Rip de Bluray

Descargar Escuela de Miedo (2020) PLACEBO Full HD 1080p Latino




Aportes de DPeliculasHDmega la pass es:dpeliculashdmega.org Aportes de CinemaniaHD la pass es:cinemaniahdd.com

Películas relacionadas

  • 100% Lobo (2020) HD 1080p Latino

    100% Lobo (2020) HD 1080p Latino

    2020
    100% Lobo (2020) HD 1080p Latino

    0.0 1h 25m 2020

    Descargar 100% Lobo (2020) HD 1080p Latino. Freddy Lupin pertenece a una orgullosa familia de hombres...

    Director: Alexs Stadermann

    Género: Animación

    Actores: Samara Weaving

  • 100% Lobo (2020) PLACEBO Full HD 1080p Latino

    100% Lobo (2020) PLACEBO Full HD 1080p Latino

    2020
    100% Lobo (2020) PLACEBO Full HD 1080p Latino

    0.0 1h 25m 2020

    Descargar 100% Lobo (2020) PLACEBO Full HD 1080p Latino. Freddy Lupin pertenece a una orgullosa familia...

    Director: Alexs Stadermann

    Género: Animación

    Actores: Samara Weaving

  • 100% Lobo (2020) REMUX 1080p Latino

    100% Lobo (2020) REMUX 1080p Latino

    2020
    100% Lobo (2020) REMUX 1080p Latino

    0.0 1h 25m 2020

    Descargar 100% Lobo (2020) REMUX 1080p Latino. Freddy Lupin pertenece a una orgullosa familia de hombres...

    Director: Alexs Stadermann

    Género: Animación

    Actores: Samara Weaving

Escuela de Miedo (2020) PLACEBO Full HD 1080p Latino pelicula full hd, Escuela de Miedo (2020) PLACEBO Full HD 1080p Latino mega latino, Escuela de Miedo (2020) PLACEBO Full HD 1080p Latino 4k latino, Escuela de Miedo (2020) PLACEBO Full HD 1080p Latino pelicula completa, Escuela de Miedo (2020) PLACEBO Full HD 1080p Latino descargar gratis, descargar Escuela de Miedo (2020) PLACEBO Full HD 1080p Latino pelicula latino, Escuela de Miedo (2020) PLACEBO Full HD 1080p Latino 1 link mega, Escuela de Miedo (2020) PLACEBO Full HD 1080p Latino 1 link google drive, Escuela de Miedo (2020) PLACEBO Full HD 1080p Latino hd 1080p latino.
Comentarios 0