×

¿Problemas para descargar con Mozilla, EDGE? Deshabilita la opción "Abrir vinculos en una pestaña nueva" tal como lo muestra ésta imagen.

Escuela de Miedo (2020) HD 1080p Latino

260 vistas

Información de Escuela de Miedo (2020) HD 1080p Latino

Datos de la película

  • Calidad: 1080p
  • Audio: Español AC3 5.1 BLURAY
  • Subtitulos: No
  • Resolución: 1920x822p
  • Formato: MKV
  • Codec: H.264
  • Encoder: Melkor
  • Mediainfo: Clic para Mostrar Datos Ver
  • Escuela De Miedo (2020) HD 1080p Latino.mkv
    Format                      : Matroska
    Format version              : Version 4
    File size                   : 2.33 GiB
    Duration                    : 1 h 25 min
    Overall bit rate            : 3 910 kb/s
    Movie name                  : Cranston Academy: Monster Zone (2020) CinemaniaHDD.Net
    Encoded date                : UTC 2021-01-14 21:22:21
    Writing application         : mkvmerge v51.0.0 ('I Wish') 64-bit
    Writing library             : libebml v1.4.0 + libmatroska v1.6.2
    Attachments                 : CINEMANIAHD.png

    Video
    ID                          : 1
    Format                      : AVC
    Format/Info                 : Advanced Video Codec
    Format profile              : High@L4.1
    Format settings             : CABAC / 5 Ref Frames
    Format settings, CABAC      : Yes
    Format settings, Reference  : 5 frames
    Codec ID                    : V_MPEG4/ISO/AVC
    Duration                    : 1 h 25 min
    Bit rate                    : 3 500 kb/s
    Width                       : 1 920 pixels
    Height                      : 822 pixels
    Display aspect ratio        : 2.35:1
    Frame rate mode             : Constant
    Frame rate                  : 23.976 (24000/1001) FPS
    Color space                 : YUV
    Chroma subsampling          : 4:2:0
    Bit depth                   : 8 bits
    Scan type                   : Progressive
    Bits/(Pixel*Frame)          : 0.092
    Stream size                 : 2.06 GiB (88%)
    Title                       : HD1080p [CinemaniaHDD]
    Writing library             : x264 core 157 r2935 545de2f
    Encoding settings           : cabac=1 / ref=5 / deblock=1:1:1 / analyse=0x3:0x133 / me=umh / subme=9 / psy=1 / psy_rd=0.40:0.00 / mixed_ref=1 / me_range=16 / chroma_me=1 / trellis=2 / 8x8dct=1 / cqm=0 / deadzone=21,11 / fast_pskip=1 / chroma_qp_offset=-2 / threads=24 / lookahead_threads=2 / sliced_threads=0 / nr=0 / decimate=1 / interlaced=0 / bluray_compat=0 / constrained_intra=0 / bframes=5 / b_pyramid=2 / b_adapt=2 / b_bias=0 / direct=3 / weightb=1 / open_gop=0 / weightp=2 / keyint=240 / keyint_min=24 / scenecut=40 / intra_refresh=0 / rc_lookahead=60 / rc=abr / mbtree=1 / bitrate=3500 / ratetol=1.0 / qcomp=0.60 / qpmin=0 / qpmax=69 / qpstep=4 / vbv_maxrate=62500 / vbv_bufsize=78125 / nal_hrd=none / filler=0 / ip_ratio=1.40 / aq=1:0.60
    Default                     : Yes
    Forced                      : Yes
    Color range                 : Limited
    Color primaries             : BT.709
    Transfer characteristics    : BT.709
    Matrix coefficients         : BT.709

    Audio
    ID                          : 2
    Format                      : AC-3
    Format/Info                 : Audio Coding 3
    Commercial name             : Dolby Digital
    Codec ID                    : A_AC3
    Duration                    : 1 h 25 min
    Bit rate mode               : Constant
    Bit rate                    : 448 kb/s
    Channel(s)                  : 6 channels
    Channel layout              : L R C LFE Ls Rs
    Sampling rate               : 48.0 kHz
    Frame rate                  : 31.250 FPS (1536 SPF)
    Compression mode            : Lossy
    Delay relative to video     : -5 ms
    Stream size                 : 273 MiB (11%)
    Title                       : Español Latino [CinemaniaHDD]
    Language                    : Spanish
    Service kind                : Complete Main
    Default                     : Yes
    Forced                      : Yes

    Menu
    00:00:00.000                : en:Chapter 01
    00:08:15.662                : en:Chapter 02
    00:15:26.926                : en:Chapter 03
    00:21:39.840                : en:Chapter 04
    00:30:10.267                : en:Chapter 05
    00:39:03.633                : en:Chapter 06
    00:45:45.076                : en:Chapter 07
    00:51:32.381                : en:Chapter 08
    00:57:48.632                : en:Chapter 09
    01:02:32.749                : en:Chapter 10
    01:08:46.497                : en:Chapter 11
    01:16:16.197                : en:Chapter 12

  • Peso: 2.33 GiB

Sinopsis

Descargar Escuela de Miedo (2020) HD 1080p Latino. Un inteligente estudiante de secundaria de 15 años es trasladado inesperadamente a un internado donde abre un portal de monstruos de otra dimensión.

Ficha técnica

  • Titulo original: Cranston Academy: Monster Zone
  • Fecha de lanzamiento: 29-04-2020 (Canada, Mexico, United Kingdom)
  • Director: Leopoldo Aguilar
  • Género: Animación, HD 1080p

Video trailer de la película

Enlaces de descarga

Rip de Bluray

Descargar Escuela de Miedo (2020) HD 1080p Latino




Aportes de DPeliculasHDmega la pass es:dpeliculashdmega.org Aportes de CinemaniaHD la pass es:cinemaniahdd.com
Guardado en : Animación , HD 1080p

Películas relacionadas

  • Rick y Morty (2022) Temporada 6 WEB-DL 1080p Latino

    Rick y Morty (2022) Temporada 6 WEB-DL 1080p Latino

    2013
    Rick y Morty (2022) Temporada 6 WEB-DL 1080p Latino

    0h 22m 2013

    Comedia animada que narra las aventuras de un científico loco Rick Sánchez, que regresa después de...

    Director: Justin Roiland

    Género: Action & Adventure

    Actores: Spencer Grammer

  • La familia Monster (2022) HD 1080p Latino

    La familia Monster (2022) HD 1080p Latino

    2022
    La familia Monster (2022) HD 1080p Latino

    1h 49m 2022

    Descargar La familia Monster (2022) HD 1080p Latino. Reboot de "The Munsters", que sigue las desventuras...

    Director: Rob Zombie

    Género: Comedia

    Actores: Tomas Boykin

  • The Animatrix (2003) REMUX 1080p Latino

    The Animatrix (2003) REMUX 1080p Latino

    2003
    The Animatrix (2003) REMUX 1080p Latino

    1h 42m 2003

    Directamente de los creadores de la revolucionaria trilogía de Matrix, esta colección de cortos de...

    Director: Yoshiaki Kawajiri

    Género: Animación

    Actores: Victor Williams

descargar Escuela de Miedo (2020) HD 1080p Latino 1080p 1080p gratis, Escuela de Miedo (2020) HD 1080p Latino 1080p mega 1 link, Escuela de Miedo (2020) HD 1080p Latino 1080p pelicula completa, descargar Escuela de Miedo (2020) HD 1080p Latino 1080p gratis en mega.

Escuela de Miedo (2020) HD 1080p Latino pelicula full hd, Escuela de Miedo (2020) HD 1080p Latino mega latino, Escuela de Miedo (2020) HD 1080p Latino 4k latino, Escuela de Miedo (2020) HD 1080p Latino pelicula completa, Escuela de Miedo (2020) HD 1080p Latino descargar gratis, descargar Escuela de Miedo (2020) HD 1080p Latino pelicula latino, Escuela de Miedo (2020) HD 1080p Latino 1 link mega, Escuela de Miedo (2020) HD 1080p Latino 1 link google drive, Escuela de Miedo (2020) HD 1080p Latino hd 1080p latino.
Comentarios 0