Escuadrón suicida (2016) Extended 1080p Latino

1.560 vistas
1 estrella2 estrellas3 estrellas4 estrellas5 estrellas (1 votos, promedio: 5,00 de 5)
Cargando...

Información de Escuadrón suicida (2016) Extended 1080p Latino

Datos de la película

  • Calidad: 1080p
  • Audio: Se especifica abajo de la Sinopsis
  • Subtitulos: Español Latino SRT- FORZADOS SRT
  • Resolución: 1920x800p
  • Formato: MKV
  • Codec: H.264
  • Encoder: CinefiloCool
  • Mediainfo: Clic para Mostrar Datos Ver
  • Escuadrón Suicida (2016) Extended 1080p Latino.mkv
    Format                      : Matroska
    Format version              : Version 4
    File size                   : 4.19 GiB
    Duration                    : 2 h 14 min
    Overall bit rate mode       : Variable
    Overall bit rate            : 4 461 kb/s
    Movie name                  : CinemaniaHDD.Net
    Encoded date                : UTC 2019-01-16 19:06:57 / UTC 2019-01-16T09:48:38Z
    Writing application         : mkvmerge v30.1.0 ('Forever And More') 64-bit
    Writing library             : libebml v1.3.6 + libmatroska v1.4.9 / Lavf57.7.2

    Video
    ID                          : 1
    Format                      : AVC
    Format/Info                 : Advanced Video Codec
    Format profile              : High@L4.1
    Format settings             : CABAC / 5 Ref Frames
    Format settings, CABAC      : Yes
    Format settings, ReFrames   : 5 frames
    Codec ID                    : V_MPEG4/ISO/AVC
    Duration                    : 2 h 14 min
    Bit rate mode               : Variable
    Bit rate                    : 3 500 kb/s
    Width                       : 1 920 pixels
    Height                      : 800 pixels
    Display aspect ratio        : 2.40:1
    Frame rate mode             : Constant
    Frame rate                  : 23.976 (24000/1001) FPS
    Color space                 : YUV
    Chroma subsampling          : 4:2:0
    Bit depth                   : 8 bits
    Scan type                   : Progressive
    Bits/(Pixel*Frame)          : 0.095
    Stream size                 : 3.21 GiB (76%)
    Title                       : HD1080p [Bluray]
    Writing library             : x264 core 155 r2901 7d0ff22
    Encoding settings           : cabac=1 / ref=5 / deblock=1:0:0 / analyse=0x3:0x133 / me=umh / subme=9 / psy=1 / psy_rd=1.00:0.00 / mixed_ref=1 / me_range=16 / chroma_me=1 / trellis=2 / 8x8dct=1 / cqm=0 / deadzone=21,11 / fast_pskip=1 / chroma_qp_offset=-2 / threads=25 / lookahead_threads=2 / sliced_threads=0 / nr=0 / decimate=1 / interlaced=0 / bluray_compat=0 / constrained_intra=0 / bframes=3 / b_pyramid=2 / b_adapt=2 / b_bias=0 / direct=3 / weightb=1 / open_gop=0 / weightp=2 / keyint=240 / keyint_min=24 / scenecut=40 / intra_refresh=0 / rc_lookahead=60 / rc=2pass / mbtree=1 / bitrate=3500 / ratetol=1.0 / qcomp=0.60 / qpmin=0 / qpmax=69 / qpstep=4 / cplxblur=20.0 / qblur=0.5 / vbv_maxrate=62500 / vbv_bufsize=78125 / nal_hrd=vbr / filler=0 / ip_ratio=1.40 / aq=1:1.00
    Default                     : Yes
    Forced                      : No
    Color range                 : Limited
    Color primaries             : BT.709
    Transfer characteristics    : BT.709
    Matrix coefficients         : BT.709
    Statistics Tags Issue       : mkvmerge v30.1.0 ('Forever And More') 64-bit 2019-01-16 19:06:57 / mkvmerge v30.1.0 ('Forever And More') 64-bit 2019-01-16 19:06:57 / UTC 2019-01-16T09:48:38Z
    FromStats_BitRate           : 3499772
    FromStats_Duration          : 02:14:32.898000000
    FromStats_FrameCount        : 193556
    FromStats_StreamSize        : 3531663317

    Audio #1
    ID                          : 2
    Format                      : AC-3
    Format/Info                 : Audio Coding 3
    Commercial name             : Dolby Digital
    Codec ID                    : A_AC3
    Duration                    : 2 h 14 min
    Bit rate mode               : Constant
    Bit rate                    : 512 kb/s
    Channel(s)                  : 6 channels
    Channel layout              : L R C LFE Ls Rs
    Sampling rate               : 48.0 kHz
    Frame rate                  : 31.250 FPS (1536 SPF)
    Bit depth                   : 16 bits
    Compression mode            : Lossy
    Delay relative to video     : 1 s 771 ms
    Stream size                 : 493 MiB (11%)
    Title                       : AC3_5.1_Edited_Esp
    Language                    : Spanish
    Service kind                : Complete Main
    Default                     : Yes
    Forced                      : Yes
    Statistics Tags Issue       : mkvmerge v30.1.0 ('Forever And More') 64-bit 2019-01-16 19:06:57 / mkvmerge v30.1.0 ('Forever And More') 64-bit 2019-01-16 19:06:57 / UTC 2019-01-16T09:48:38Z
    FromStats_BitRate           : 512000
    FromStats_Duration          : 02:14:32.096000000
    FromStats_FrameCount        : 252253
    FromStats_StreamSize        : 516614144

    Audio #2
    ID                          : 3
    Format                      : AC-3
    Format/Info                 : Audio Coding 3
    Commercial name             : Dolby Digital
    Codec ID                    : A_AC3
    Duration                    : 2 h 14 min
    Bit rate mode               : Constant
    Bit rate                    : 448 kb/s
    Channel(s)                  : 6 channels
    Channel layout              : L R C LFE Ls Rs
    Sampling rate               : 48.0 kHz
    Frame rate                  : 31.250 FPS (1536 SPF)
    Bit depth                   : 16 bits
    Compression mode            : Lossy
    Stream size                 : 431 MiB (10%)
    Title                       : AC3_5.1_Bluray_Eng
    Language                    : English
    Service kind                : Complete Main
    Default                     : No
    Forced                      : No
    Statistics Tags Issue       : mkvmerge v30.1.0 ('Forever And More') 64-bit 2019-01-16 19:06:57 / mkvmerge v30.1.0 ('Forever And More') 64-bit 2019-01-16 19:06:57 / UTC 2019-01-16T09:48:38Z
    FromStats_BitRate           : 448000
    FromStats_Duration          : 02:14:32.928000000
    FromStats_FrameCount        : 252279
    FromStats_StreamSize        : 452083968

    Text #1
    ID                          : 4
    Format                      : UTF-8
    Codec ID                    : S_TEXT/UTF8
    Codec ID/Info               : UTF-8 Plain Text
    Title                       : Sub_Forzados
    Language                    : Spanish
    Default                     : Yes
    Forced                      : Yes
    Statistics Tags Issue       : mkvmerge v30.1.0 ('Forever And More') 64-bit 2019-01-16 19:06:57 / mkvmerge v30.1.0 ('Forever And More') 64-bit 2019-01-16 19:06:57 / UTC 2019-01-16T09:48:38Z
    FromStats_BitRate           : 10
    FromStats_Duration          : 01:52:56.651000000
    FromStats_FrameCount        : 268
    FromStats_StreamSize        : 9182

    Text #2
    ID                          : 5
    Format                      : UTF-8
    Codec ID                    : S_TEXT/UTF8
    Codec ID/Info               : UTF-8 Plain Text
    Title                       : Sub_Esp
    Language                    : Spanish
    Default                     : No
    Forced                      : No
    Statistics Tags Issue       : mkvmerge v30.1.0 ('Forever And More') 64-bit 2019-01-16 19:06:57 / mkvmerge v30.1.0 ('Forever And More') 64-bit 2019-01-16 19:06:57 / UTC 2019-01-16T09:48:38Z
    FromStats_BitRate           : 54
    FromStats_Duration          : 02:07:35.601000000
    FromStats_FrameCount        : 1631
    FromStats_StreamSize        : 52320

    Text #3
    ID                          : 6
    Format                      : UTF-8
    Codec ID                    : S_TEXT/UTF8
    Codec ID/Info               : UTF-8 Plain Text
    Title                       : Sub_Eng
    Language                    : English
    Default                     : No
    Forced                      : No
    Statistics Tags Issue       : mkvmerge v30.1.0 ('Forever And More') 64-bit 2019-01-16 19:06:57 / mkvmerge v30.1.0 ('Forever And More') 64-bit 2019-01-16 19:06:57 / UTC 2019-01-16T09:48:38Z
    FromStats_BitRate           : 46
    FromStats_Duration          : 02:06:43.913000000
    FromStats_FrameCount        : 1507
    FromStats_StreamSize        : 44086

    Menu
    00:00:00.000                : :00:00:00.000
    00:09:08.506                : :00:09:08.506
    00:20:22.972                : :00:20:22.971
    00:31:14.706                : :00:31:14.706
    00:41:04.879                : :00:41:04.879
    00:52:21.805                : :00:52:21.805
    01:04:48.843                : :01:04:48.843
    01:21:12.743                : :01:21:12.742
    01:32:11.943                : :01:32:11.943
    01:42:57.672                : :01:42:57.671
    01:50:58.652                : :01:50:58.652
    02:04:04.812                : :02:04:04.812

  • Peso: 4.19 GiB

Sinopsis

Descargar Escuadrón suicida (2016) Extended 1080p Latino, Mega, Google Drive, Torrent. Mientras el gobierno de EE.UU no tiene claro cómo responder a una visita alienígena a la Tierra con intenciones malignas, Amanda ‘El Muro’ Waller, la líder de la agencia secreta A.R.G.U.S., ofrece una curiosa solución: reclutar a los villanos más crueles, con habilidades letales e incluso mágicas, para que trabajen para ellos. Sin demasiadas opciones a dar una negativa, los ocho supervillanos más peligrosos del mundo acceden a colaborar con el Ejecutivo en peligrosas misiones secretas, casi suicidas, para así lograr limpiar su expediente.

Audio Español Editado Con Partes en Ingles AC3 5.1 – Ingles AC3 5.1 Bluray
Creditos Audio Latino: MDCV1721 (Thanks!!)

Ficha técnica

Video trailer de la película

Enlaces de descarga

Rip de Bluray

Descargar Escuadrón suicida (2016) Extended 1080p Latino




Aportes de DPeliculasHDmega la pass es:dpeliculashdmega.org Aportes de CinemaniaHD la pass es:cinemaniahdd.com
Etiquetado en :

Películas relacionadas

  • Horizon Line (2020) HD 1080p Latino

    Horizon Line (2020) HD 1080p Latino

    2020
    Horizon Line (2020) HD 1080p Latino

    0.0 1h 31m 2020

    Descargar Horizon Line (2020) HD 1080p Latino. Una pareja que viaja en un avión pequeño para asistir...

    Director: Mikael Marcimain

    Género: HD 1080p

    Actores: Pearl Mackie

  • Sola (2020) HD 1080p Latino

    Sola (2020) HD 1080p Latino

    2020
    Sola (2020) HD 1080p Latino

    0.0 1h 40m 2020

    Descargar Sola (2020) HD 1080p Latino. Una mujer viuda que viaja sola es secuestrada por un asesino a...

    Director: John Hyams

    Género: Drama

    Actores: Shelly Lipkin

  • La Red De Corrupcion (2019) HD 1080p Latino

    La Red De Corrupcion (2019) HD 1080p Latino

    2019
    La Red De Corrupcion (2019) HD 1080p Latino

    5.0 1h 45m 2019

    Descargar La Red De Corrupcion (2019) HD 1080p Latino. Con los Juegos Olímpicos de 2012 de Londres...

    Director: Ron Scalpello

    Género: Crimen

    Actores: Timothy Spall

  • La Red De Corrupcion (2019) REMUX 1080p Latino

    La Red De Corrupcion (2019) REMUX 1080p Latino

    2019
    La Red De Corrupcion (2019) REMUX 1080p Latino

    5.0 1h 45m 2019

    Descargar La Red De Corrupcion (2019) REMUX 1080p Latino. Con los Juegos Olímpicos de 2012 de Londres...

    Director: Ron Scalpello

    Género: Crimen

    Actores: Timothy Spall

  • Chop Chop (2020) AMZN WEB-DL 1080p Latino

    Chop Chop (2020) AMZN WEB-DL 1080p Latino

    2020
    Chop Chop (2020) AMZN WEB-DL 1080p Latino

    5.0 1h 21m 2020

    Una pareja se involucra con una banda de criminales endurecidos después de sobrevivir a un ataque de...

    Director: Rony Patel

    Género: Crimen

    Actores: Jake Taylor

Escuadrón suicida (2016) Extended 1080p Latino pelicula full hd, Escuadrón suicida (2016) Extended 1080p Latino mega latino, Escuadrón suicida (2016) Extended 1080p Latino 4k latino, Escuadrón suicida (2016) Extended 1080p Latino pelicula completa, Escuadrón suicida (2016) Extended 1080p Latino descargar gratis, descargar Escuadrón suicida (2016) Extended 1080p Latino pelicula latino, Escuadrón suicida (2016) Extended 1080p Latino 1 link mega, Escuadrón suicida (2016) Extended 1080p Latino 1 link google drive, Escuadrón suicida (2016) Extended 1080p Latino hd 1080p latino.
Comentarios 0