Escuadrón suicida (2016) Extended Full 1080p Latino

2.767 vistas
1 estrella2 estrellas3 estrellas4 estrellas5 estrellas (7 votos, promedio: 5,00 de 5)
Cargando…

Información de Escuadrón suicida (2016) Extended Full 1080p Latino

Datos de la película

  • Calidad: Full 1080p
  • Audio: Se especifica abajo de la Sinopsis
  • Subtitulos: Español Latino SRT- FORZADOS SRT
  • Resolución: 1920X1080p
  • Formato: MKV
  • Codec: H.264
  • Encoder: Dpelis
  • Mediainfo: Clic para Mostrar Datos Ver
  • Escuadrón suicida (2016) Extended Full 1080p Latino.mkv
    Format                      : Matroska
    Format version              : Version 4
    File size                   : 5.16 GiB
    Duration                    : 2 h 14 min
    Overall bit rate            : 5 488 kb/s
    Movie name                  : CinemaniaHDD.Net
    Encoded date                : UTC 2019-01-17 06:58:59
    Writing application         : mkvmerge v30.1.0 ('Forever And More') 64-bit
    Writing library             : libebml v1.3.6 + libmatroska v1.4.9

    Video
    ID                          : 1
    Format                      : AVC
    Format/Info                 : Advanced Video Codec
    Format profile              : [email protected]
    Format settings             : CABAC / 4 Ref Frames
    Format settings, CABAC      : Yes
    Format settings, ReFrames   : 4 frames
    Codec ID                    : V_MPEG4/ISO/AVC
    Duration                    : 2 h 14 min
    Bit rate                    : 4 324 kb/s
    Width                       : 1 920 pixels
    Height                      : 1 080 pixels
    Display aspect ratio        : 16:9
    Frame rate mode             : Constant
    Frame rate                  : 23.976 (24000/1001) FPS
    Color space                 : YUV
    Chroma subsampling          : 4:2:0
    Bit depth                   : 8 bits
    Scan type                   : Progressive
    Bits/(Pixel*Frame)          : 0.087
    Stream size                 : 4.06 GiB (79%)
    Title                       : Full HD1080p [Bluray]
    Writing library             : x264 core 148 r2708 86b7198
    Encoding settings           : cabac=1 / ref=4 / deblock=1:0:0 / analyse=0x3:0x133 / me=esa / subme=10 / psy=1 / psy_rd=1.00:0.00 / mixed_ref=1 / me_range=24 / chroma_me=1 / trellis=2 / 8x8dct=1 / cqm=0 / deadzone=21,11 / fast_pskip=1 / chroma_qp_offset=-2 / threads=34 / lookahead_threads=5 / sliced_threads=0 / nr=0 / decimate=1 / interlaced=0 / bluray_compat=0 / constrained_intra=0 / bframes=8 / b_pyramid=2 / b_adapt=2 / b_bias=0 / direct=3 / weightb=1 / open_gop=0 / weightp=2 / keyint=240 / keyint_min=24 / scenecut=40 / intra_refresh=0 / rc_lookahead=60 / rc=crf / mbtree=1 / crf=20.0 / qcomp=0.60 / qpmin=0 / qpmax=69 / qpstep=4 / vbv_maxrate=62500 / vbv_bufsize=78125 / crf_max=0.0 / nal_hrd=none / filler=0 / ip_ratio=1.40 / aq=1:1.00
    Default                     : Yes
    Forced                      : No
    Color range                 : Limited
    Color primaries             : BT.709
    Transfer characteristics    : BT.709
    Matrix coefficients         : BT.709

    Audio #1
    ID                          : 2
    Format                      : AC-3
    Format/Info                 : Audio Coding 3
    Commercial name             : Dolby Digital
    Codec ID                    : A_AC3
    Duration                    : 2 h 14 min
    Bit rate mode               : Constant
    Bit rate                    : 512 kb/s
    Channel(s)                  : 6 channels
    Channel layout              : L R C LFE Ls Rs
    Sampling rate               : 48.0 kHz
    Frame rate                  : 31.250 FPS (1536 SPF)
    Bit depth                   : 16 bits
    Compression mode            : Lossy
    Delay relative to video     : 1 s 776 ms
    Stream size                 : 493 MiB (9%)
    Title                       : AC3_5.1_Edited_Esp
    Language                    : Spanish
    Service kind                : Complete Main
    Default                     : Yes
    Forced                      : Yes

    Audio #2
    ID                          : 3
    Format                      : AC-3
    Format/Info                 : Audio Coding 3
    Commercial name             : Dolby Digital
    Codec ID                    : A_AC3
    Duration                    : 2 h 14 min
    Bit rate mode               : Constant
    Bit rate                    : 640 kb/s
    Channel(s)                  : 6 channels
    Channel layout              : L R C LFE Ls Rs
    Sampling rate               : 48.0 kHz
    Frame rate                  : 31.250 FPS (1536 SPF)
    Bit depth                   : 16 bits
    Compression mode            : Lossy
    Stream size                 : 616 MiB (12%)
    Title                       : AC3_5.1_Bluray_Eng
    Language                    : English
    Service kind                : Complete Main
    Default                     : No
    Forced                      : No

    Text #1
    ID                          : 4
    Format                      : UTF-8
    Codec ID                    : S_TEXT/UTF8
    Codec ID/Info               : UTF-8 Plain Text
    Duration                    : 1 h 52 min
    Bit rate                    : 10 b/s
    Count of elements           : 268
    Stream size                 : 8.97 KiB (0%)
    Title                       : Sub_Forzados [SRT]
    Language                    : Spanish
    Default                     : Yes
    Forced                      : Yes

    Text #2
    ID                          : 5
    Format                      : UTF-8
    Codec ID                    : S_TEXT/UTF8
    Codec ID/Info               : UTF-8 Plain Text
    Duration                    : 2 h 7 min
    Bit rate                    : 54 b/s
    Count of elements           : 1631
    Stream size                 : 51.1 KiB (0%)
    Title                       : Sub_Esp [SRT]
    Language                    : Spanish
    Default                     : No
    Forced                      : No

    Text #3
    ID                          : 6
    Format                      : PGS
    Muxing mode                 : zlib
    Codec ID                    : S_HDMV/PGS
    Codec ID/Info               : Picture based subtitle format used on BDs/HD-DVDs
    Duration                    : 2 h 13 min
    Bit rate                    : 33.1 kb/s
    Count of elements           : 3648
    Stream size                 : 31.8 MiB (1%)
    Title                       : Sub_Eng [PGS]
    Language                    : English
    Default                     : No
    Forced                      : No

    Menu
    00:00:00.000                : :00:00:00.000
    00:09:08.506                : :00:09:08.506
    00:20:22.972                : :00:20:22.971
    00:31:14.706                : :00:31:14.706
    00:41:04.879                : :00:41:04.879
    00:52:21.805                : :00:52:21.805
    01:04:48.843                : :01:04:48.843
    01:21:12.743                : :01:21:12.742
    01:32:11.943                : :01:32:11.943
    01:42:57.672                : :01:42:57.671
    01:50:58.652                : :01:50:58.652
    02:04:04.812                : :02:04:04.812

  • Peso: 5.16 GiB

Sinopsis

Descargar Escuadrón suicida (2016) Extended 1080p Latino, Mega, Google Drive, Torrent. Mientras el gobierno de EE.UU no tiene claro cómo responder a una visita alienígena a la Tierra con intenciones malignas, Amanda ‘El Muro’ Waller, la líder de la agencia secreta A.R.G.U.S., ofrece una curiosa solución: reclutar a los villanos más crueles, con habilidades letales e incluso mágicas, para que trabajen para ellos. Sin demasiadas opciones a dar una negativa, los ocho supervillanos más peligrosos del mundo acceden a colaborar con el Ejecutivo en peligrosas misiones secretas, casi suicidas, para así lograr limpiar su expediente.

Audio Español Editado Con Partes en Ingles AC3 5.1 – Ingles AC3 5.1 Bluray
Creditos Audio Latino: MDCV1721 (Thanks!!)

Ficha técnica

Video trailer de la película

Enlaces de descarga

Rip de Bluray

Descargar Escuadrón suicida (2016) Extended Full 1080p Latino




Aportes de DPeliculasHDmega la pass es:dpeliculashdmega.org Aportes de CinemaniaHD la pass es:cinemaniahdd.com
Etiquetado en :

Películas relacionadas

  • El Reino de los Supermanes (2019) 1080p Latino

    2019
    El Reino de los Supermanes (2019) 1080p Latino

    5.0 1h 27m 2019

    Descargar El Reino de los Supermanes (2019) 1080p Latino, Mega, Google Drive, Torrent. Superman ha muerto...

    Director: Sam Liu

    Género: Acción

    Actores: Trevor Devall

  • Hunter Killer (2018) HD 1080p Latino

    2018
    Hunter Killer (2018) HD 1080p Latino

    3.0 2h 2m 2018

    Descargar Hunter Killer (2018) HD 1080p Latino, Mega, Google Drive, Torrent. Un capitán de submarinos...

    Director: Donovan Marsh

    Género: Acción

    Actores: Zane Holtz

  • Bernie the Dolphin (2018) WEB-DL 1080p Latino

    2018
    Bernie the Dolphin (2018) WEB-DL 1080p Latino

    0.0 1h 28m 2018

    Ubicada en San Agustín, Florida, trata sobre un hermano y una hermana que se hacen amigos de un delfín...

    Director: Kirk Harris

    Género: Acción

    Actores: Stelio Savante

  • The Punisher (2019) Temporada 2 NF 1080p Latino

    2017
    The Punisher (2019) Temporada 2 NF 1080p Latino

    5.0 0h 53m 2017

    Por ahora, Netflix no ha revelado el contenido de la temporada 2 de "The Punisher", ya que lo único...

    Director: Steve Lightfoot

    Género: Action & Adventure

    Actores: Josh Stewart

Comentarios 4
  • Aldair Jesus - 01 noviembre, 2017

    Alguien podria decirme la duracion exacta de la pelicula? Me refiero a hh/mm/ss exactamente, para ver si le sirve el audio editado de un rip de la vieja CinemaniaHDD y compartirselos a los que lo quieran.

  • Luis - 28 octubre, 2017

    Muchisimas Gracias, Habra Audio Latino Para esta Version?

    • Dpelis2 pelis2 - 29 octubre, 2017

      Al parecer si pero creo que no fue bien editado por eso no se subios con dicho audio! Saludos

  • Jairo - 26 octubre, 2017

    Batman VS Superman Extendida por favor, estaria muy buena!