×

¿Problemas para descargar con Mozilla, EDGE? Deshabilita la opción "Abrir vinculos en una pestaña nueva" tal como lo muestra ésta imagen.

Escuadrón 6 (2019) NF WEB-DL 1080p Latino

2.984 vistas

Información de Escuadrón 6 (2019) NF WEB-DL 1080p Latino

Datos de la película

  • Calidad: WEBDL
  • Audio: Español Latino AC3 5.1 Netflix - Ingles AC3 5.1 Netflix
  • Subtitulos: Español Latino SRT- FORZADOS SRT
  • Resolución: 1920x1080
  • Formato: MKV
  • Codec: H.264
  • Encoder: cinemaniahdd
  • Mediainfo: Clic para Mostrar Datos Ver
  • Escuadrón 6 (2019) NF WEB-DL 1080p Latino.mkv
    Format                      : Matroska
    Format version              : Version 4
    File size                   : 7.32 GiB
    Duration                    : 2 h 8 min
    Overall bit rate mode       : Variable
    Overall bit rate            : 8 137 kb/s
    Movie name                  : Escuadrón 6 (2019) - CinemaniaHDD.Net
    Encoded date                : UTC 2019-12-14 01:19:10
    Writing application         : mkvmerge v38.0.0 ('The Silent Type') 64-bit
    Writing library             : libebml v1.3.9 + libmatroska v1.5.2

    Video
    ID                          : 1
    Format                      : AVC
    Format/Info                 : Advanced Video Codec
    Format profile              : Main@L4
    Format settings             : CABAC / 3 Ref Frames
    Format settings, CABAC      : Yes
    Format settings, ReFrames   : 3 frames
    Codec ID                    : V_MPEG4/ISO/AVC
    Duration                    : 2 h 8 min
    Bit rate mode               : Variable
    Bit rate                    : 7 500 kb/s
    Maximum bit rate            : 11.2 Mb/s
    Width                       : 1 920 pixels
    Height                      : 1 080 pixels
    Display aspect ratio        : 16:9
    Frame rate mode             : Constant
    Frame rate                  : 23.976 (24000/1001) FPS
    Color space                 : YUV
    Chroma subsampling          : 4:2:0
    Bit depth                   : 8 bits
    Scan type                   : Progressive
    Bits/(Pixel*Frame)          : 0.151
    Stream size                 : 6.63 GiB (91%)
    Title                       : CinemaniaHDD
    Writing library             : x264 core 148 r2715 7e75228
    Encoding settings           : cabac=1 / ref=3 / deblock=1:0:0 / analyse=0x1:0x111 / me=umh / subme=10 / psy=1 / psy_rd=1.00:0.00 / mixed_ref=1 / me_range=24 / chroma_me=1 / trellis=2 / 8x8dct=0 / cqm=0 / deadzone=21,11 / fast_pskip=1 / chroma_qp_offset=-2 / threads=6 / lookahead_threads=1 / sliced_threads=0 / nr=0 / decimate=1 / interlaced=0 / bluray_compat=0 / stitchable=1 / constrained_intra=0 / bframes=2 / b_pyramid=0 / b_adapt=2 / b_bias=0 / direct=3 / weightb=1 / open_gop=0 / weightp=2 / keyint=250 / keyint_min=23 / scenecut=0 / intra_refresh=0 / rc_lookahead=48 / rc=2pass / mbtree=1 / bitrate=7500 / ratetol=1.0 / qcomp=0.50 / qpmin=6 / qpmax=51 / qpstep=4 / cplxblur=20.0 / qblur=0.5 / vbv_maxrate=11250 / vbv_bufsize=15000 / nal_hrd=vbr / filler=0 / ip_ratio=1.40 / aq=1:1.00
    Default                     : Yes
    Forced                      : No

    Audio #1
    ID                          : 2
    Format                      : AC-3
    Format/Info                 : Audio Coding 3
    Commercial name             : Dolby Digital
    Codec ID                    : A_AC3
    Duration                    : 2 h 8 min
    Bit rate mode               : Constant
    Bit rate                    : 384 kb/s
    Channel(s)                  : 6 channels
    Channel layout              : L R C LFE Ls Rs
    Sampling rate               : 48.0 kHz
    Frame rate                  : 31.250 FPS (1536 SPF)
    Bit depth                   : 16 bits
    Compression mode            : Lossy
    Stream size                 : 354 MiB (5%)
    Title                       : Español latino [CinemaniaHDD]
    Language                    : Spanish
    Service kind                : Complete Main
    Default                     : Yes
    Forced                      : No

    Audio #2
    ID                          : 3
    Format                      : AC-3
    Format/Info                 : Audio Coding 3
    Commercial name             : Dolby Digital
    Codec ID                    : A_AC3
    Duration                    : 2 h 8 min
    Bit rate mode               : Constant
    Bit rate                    : 384 kb/s
    Channel(s)                  : 6 channels
    Channel layout              : L R C LFE Ls Rs
    Sampling rate               : 48.0 kHz
    Frame rate                  : 31.250 FPS (1536 SPF)
    Bit depth                   : 16 bits
    Compression mode            : Lossy
    Stream size                 : 354 MiB (5%)
    Title                       : Inglés [CinemaniaHDD]
    Language                    : English
    Service kind                : Complete Main
    Default                     : No
    Forced                      : No

    Text #1
    ID                          : 4
    Format                      : UTF-8
    Codec ID                    : S_TEXT/UTF8
    Codec ID/Info               : UTF-8 Plain Text
    Duration                    : 2 h 7 min
    Bit rate                    : 1 b/s
    Count of elements           : 65
    Stream size                 : 1.40 KiB (0%)
    Title                       : Forzados [CinemaniaHDD]
    Language                    : Spanish
    Default                     : Yes
    Forced                      : Yes

    Text #2
    ID                          : 5
    Format                      : UTF-8
    Codec ID                    : S_TEXT/UTF8
    Codec ID/Info               : UTF-8 Plain Text
    Duration                    : 2 h 7 min
    Bit rate                    : 54 b/s
    Count of elements           : 1714
    Stream size                 : 51.2 KiB (0%)
    Title                       : Español latino [CinemaniaHDD]
    Language                    : Spanish
    Default                     : No
    Forced                      : No

     

  • Peso: 7.32 GiB

Sinopsis

¿Cuál es la mejor parte de estar muerto? No se trata de escapar de tu jefe, de tu ex, de borrar tu historial criminal. La mejor parte de estar muerto es la libertad. Poder acabar con gente mala de verdad, sin tener que responder ante nadie. Liderados por el el enigmático Uno (Ryan Reynolds), seis individuos de distintas partes del mundo han sido elegidos no solo por su habilidad, sino por su deseo de eliminar su pasado para cambiar el futuro. Este equipo de justicieros, que han fingido su muerte, se dedican a desmantelar organizaciones criminales. Y es que, a pesar de estar muertos, harán historia.

Ficha técnica

Video trailer de la película

Enlaces de descarga

Rip de Bluray

Descargar Escuadrón 6 (2019) NF WEB-DL 1080p Latino




Aportes de DPeliculasHDmega la pass es:dpeliculashdmega.org Aportes de CinemaniaHD la pass es:cinemaniahdd.com
Guardado en : Acción , Aventura , Netflix , Suspenso

Películas relacionadas

  • Wire Room (2022) HD 1080p Latino

    Wire Room (2022) HD 1080p Latino

    2022
    Wire Room (2022) HD 1080p Latino

    1h 37m 2022

    Descargar Wire Room (2022) HD 1080p Latino. Mientras está de servicio en la sala de cables, un agente...

    Director: Matt Eskandari

    Género: Acción

    Actores: Texas Battle

  • Wire Room (2022) PLACEBO Full HD 1080p Latino

    Wire Room (2022) PLACEBO Full HD 1080p Latino

    2022
    Wire Room (2022) PLACEBO Full HD 1080p Latino

    1h 37m 2022

    Descargar Wire Room (2022) PLACEBO Full HD 1080p Latino. Mientras está de servicio en la sala de cables,...

    Director: Matt Eskandari

    Género: Acción

    Actores: Texas Battle

  • Wire Room (2022) REMUX 1080p Latino

    Wire Room (2022) REMUX 1080p Latino

    2022
    Wire Room (2022) REMUX 1080p Latino

    1h 37m 2022

    Descargar Wire Room (2022) REMUX 1080p Latino. Mientras está de servicio en la sala de cables, un agente...

    Director: Matt Eskandari

    Género: Acción

    Actores: Texas Battle

  • Alarido (2022) HD 1080p Latino

    Alarido (2022) HD 1080p Latino

    2022
    Alarido (2022) HD 1080p Latino

    1h 29m 2022

    Descargar Alarido (2022) HD 1080p Latino. Una joven madre soltera es cautiva junto con sus dos hijos...

    Director: D.J. Caruso

    Género: HD 1080p

    Actores: Vincent Gallo

  • Alarido (2022) PLACEBO Full HD 1080p Latino

    Alarido (2022) PLACEBO Full HD 1080p Latino

    2022
    Alarido (2022) PLACEBO Full HD 1080p Latino

    1h 29m 2022

    Descargar Alarido (2022) PLACEBO Full HD 1080p Latino. Una joven madre soltera es cautiva junto con sus...

    Director: D.J. Caruso

    Género: FULL 1080p Plateadas

    Actores: Vincent Gallo

descargar Escuadrón 6 (2019) NF WEB-DL 1080p Latino WEBDL 1080p gratis, Escuadrón 6 (2019) NF WEB-DL 1080p Latino WEBDL mega 1 link, Escuadrón 6 (2019) NF WEB-DL 1080p Latino WEBDL pelicula completa, descargar Escuadrón 6 (2019) NF WEB-DL 1080p Latino WEBDL gratis en mega.

Escuadrón 6 (2019) NF WEB-DL 1080p Latino pelicula full hd, Escuadrón 6 (2019) NF WEB-DL 1080p Latino mega latino, Escuadrón 6 (2019) NF WEB-DL 1080p Latino 4k latino, Escuadrón 6 (2019) NF WEB-DL 1080p Latino pelicula completa, Escuadrón 6 (2019) NF WEB-DL 1080p Latino descargar gratis, descargar Escuadrón 6 (2019) NF WEB-DL 1080p Latino pelicula latino, Escuadrón 6 (2019) NF WEB-DL 1080p Latino 1 link mega, Escuadrón 6 (2019) NF WEB-DL 1080p Latino 1 link google drive, Escuadrón 6 (2019) NF WEB-DL 1080p Latino hd 1080p latino.
Comentarios 13
  • ari - 15 diciembre, 2019

    El password cual es? pruebo con lo que dice pero no pasa nada.

  • Elbio - 15 diciembre, 2019

    la verdad q no puedo bajar nada
    veo el video de como hacerlo, lo hago igual copiando en enlace, le doy clic a la pagina y lo unico que me sale siempre es
    Oops…!
    Parece que ha olvidado pegar el còdigo en la busqueda de google
    y lo intente varias veces

    • CinemaniaHDD - 15 diciembre, 2019

      Ya se agrego otro Metodo, Borra el cache de tu navegador web cierra y vuelve a entrar.

      • Elbio - 15 diciembre, 2019

        muchas gracias

  • andres silva rodriguez - 14 diciembre, 2019

    no funciona el acortador de la busqueda en google, abre una pagina normal y no comienza el contador a disminuir

    • CinemaniaHDD - 15 diciembre, 2019

      Ya se agrego otro Metodo, Borra el cache de tu navegador web cierra y vuelve a entrar.

  • Guillermo Hurtado - 14 diciembre, 2019

    Hola, hago todo al pie de la letra como dice el video y le doy al banner y en ningun momento sale nada.

    • CinemaniaHDD - 15 diciembre, 2019

      Ya se agrego otro Metodo, Borra el cache de tu navegador web cierra y vuelve a entrar.

  • apesumbrado - 14 diciembre, 2019

    Lastimosamente no puedo descargar, no me anda el nuevo metodo

    • CinemaniaHDD - 15 diciembre, 2019

      Ya se agrego otro Metodo, Borra el cache de tu navegador web cierra y vuelve a entrar.

  • joses - 13 diciembre, 2019

    porfavor….su acortador no ffunciona…… usen otro tipo de cortador porfavor…. no redirige a ninguna pagina para descargar

    • CinemaniaHDD - 15 diciembre, 2019

      Ya se agrego otro Metodo, Borra el cache de tu navegador web cierra y vuelve a entrar.