Escape Room (2019) REMUX 1080p Latino

419 vistas
1 estrella2 estrellas3 estrellas4 estrellas5 estrellas (1 votos, promedio: 5,00 de 5)
Cargando…

Información de Escape Room (2019) REMUX 1080p Latino

Datos de la película

  • Calidad: Full 1080p
  • Audio: Español Latino AC3 5.1 BLURAY - Ingles DTS 5.1 BLURAY
  • Subtitulos: Español Latino PGS - Ingles PGS
  • Resolución: 1920x1080
  • Formato: MKV
  • Codec: H.264
  • Encoder: Chesse92
  • Mediainfo: Clic para Mostrar Datos Ver
  • Escape Room (2019) REMUX 1080p Latino.mkv
    Format                      : Matroska
    Format version              : Version 4
    File size                   : 18.7 GiB
    Duration                    : 1 h 39 min
    Overall bit rate mode       : Variable
    Overall bit rate            : 26.8 Mb/s
    Movie name                  : CinemaniaHDD.net
    Encoded date                : UTC 2019-04-15 15:25:42
    Writing application         : mkvmerge v30.1.0 ('Forever And More') 64-bit
    Writing library             : libebml v1.3.6 + libmatroska v1.4.9
    Cover                       : Yes
    Attachments                 : cover_land.jpg / small_cover.jpg / small_cover_land.jpg / cover.jpg

    Video
    ID                          : 1
    Format                      : AVC
    Format/Info                 : Advanced Video Codec
    Format profile              : [email protected]
    Format settings             : CABAC / 2 Ref Frames
    Format settings, CABAC      : Yes
    Format settings, ReFrames   : 2 frames
    Format settings, GOP        : M=1, N=10
    Codec ID                    : V_MPEG4/ISO/AVC
    Duration                    : 1 h 39 min
    Bit rate mode               : Variable
    Bit rate                    : 23.9 Mb/s
    Width                       : 1 920 pixels
    Height                      : 1 080 pixels
    Display aspect ratio        : 16:9
    Frame rate mode             : Constant
    Frame rate                  : 23.976 (24000/1001) FPS
    Color space                 : YUV
    Chroma subsampling          : 4:2:0
    Bit depth                   : 8 bits
    Scan type                   : Progressive
    Bits/(Pixel*Frame)          : 0.480
    Stream size                 : 16.6 GiB (89%)
    Language                    : English
    Default                     : No
    Forced                      : No

    Audio #1
    ID                          : 2
    Format                      : AC-3
    Format/Info                 : Audio Coding 3
    Commercial name             : Dolby Digital
    Codec ID                    : A_AC3
    Duration                    : 1 h 39 min
    Bit rate mode               : Constant
    Bit rate                    : 640 kb/s
    Channel(s)                  : 6 channels
    Channel layout              : L R C LFE Ls Rs
    Sampling rate               : 48.0 kHz
    Frame rate                  : 31.250 FPS (1536 SPF)
    Bit depth                   : 16 bits
    Compression mode            : Lossy
    Stream size                 : 456 MiB (2%)
    Language                    : Spanish
    Service kind                : Complete Main
    Default                     : No
    Forced                      : No

    Audio #2
    ID                          : 3
    Format                      : DTS XLL
    Format/Info                 : Digital Theater Systems
    Commercial name             : DTS-HD Master Audio
    Codec ID                    : A_DTS
    Duration                    : 1 h 39 min
    Bit rate mode               : Variable
    Bit rate                    : 2 247 kb/s
    Channel(s)                  : 6 channels
    Channel layout              : C L R Ls Rs LFE
    Sampling rate               : 48.0 kHz
    Frame rate                  : 93.750 FPS (512 SPF)
    Bit depth                   : 16 bits
    Compression mode            : Lossless
    Stream size                 : 1.56 GiB (8%)
    Language                    : English
    Default                     : Yes
    Forced                      : No

    Text #1
    ID                          : 4
    Format                      : PGS
    Muxing mode                 : zlib
    Codec ID                    : S_HDMV/PGS
    Codec ID/Info               : Picture based subtitle format used on BDs/HD-DVDs
    Duration                    : 1 h 33 min
    Bit rate                    : 41.8 kb/s
    Count of elements           : 2636
    Stream size                 : 28.0 MiB (0%)
    Title                       : English-PGS
    Language                    : English
    Default                     : No
    Forced                      : No

    Text #2
    ID                          : 5
    Format                      : PGS
    Muxing mode                 : zlib
    Codec ID                    : S_HDMV/PGS
    Codec ID/Info               : Picture based subtitle format used on BDs/HD-DVDs
    Duration                    : 1 h 38 min
    Bit rate                    : 33.8 kb/s
    Count of elements           : 2620
    Stream size                 : 23.8 MiB (0%)
    Title                       : Spanish-PGS
    Language                    : Spanish
    Default                     : No
    Forced                      : No

    Text #3
    ID                          : 6
    Format                      : PGS
    Muxing mode                 : zlib
    Codec ID                    : S_HDMV/PGS
    Codec ID/Info               : Picture based subtitle format used on BDs/HD-DVDs
    Duration                    : 1 h 34 min
    Bit rate                    : 76 b/s
    Count of elements           : 6
    Stream size                 : 52.8 KiB (0%)
    Title                       : Spanish-FORCED-PGS
    Language                    : Spanish
    Default                     : No
    Forced                      : No

    Text #4
    ID                          : 7
    Format                      : UTF-8
    Codec ID                    : S_TEXT/UTF8
    Codec ID/Info               : UTF-8 Plain Text
    Duration                    : 1 h 33 min
    Bit rate                    : 59 b/s
    Count of elements           : 1309
    Stream size                 : 40.9 KiB (0%)
    Language                    : Spanish
    Default                     : Yes
    Forced                      : No

    Text #5
    ID                          : 8
    Format                      : UTF-8
    Codec ID                    : S_TEXT/UTF8
    Codec ID/Info               : UTF-8 Plain Text
    Duration                    : 1 h 25 min
    Bit rate                    : 0 b/s
    Count of elements           : 2
    Stream size                 : 35.0 Bytes (0%)
    Language                    : Spanish
    Default                     : No
    Forced                      : No

    Menu
    00:00:00.000                : en:Chapter 01
    00:04:36.192                : en:Chapter 02
    00:09:25.523                : en:Chapter 03
    00:14:08.764                : en:Chapter 04
    00:19:46.101                : en:Chapter 05
    00:25:55.220                : en:Chapter 06
    00:33:08.695                : en:Chapter 07
    00:37:27.161                : en:Chapter 08
    00:43:04.915                : en:Chapter 09
    00:50:05.794                : en:Chapter 10
    00:53:58.526                : en:Chapter 11
    01:03:15.291                : en:Chapter 12
    01:09:07.893                : en:Chapter 13
    01:16:14.695                : en:Chapter 14
    01:22:48.755                : en:Chapter 15
    01:30:27.880                : en:Chapter 16

  • Peso: 18.7 GiB

Sinopsis

Seis desconocidos reciben un misterioso paquete. En su interior, se encuentra un mensaje que promete al propietario una oportunidad para alejarse de su vida rutinaria. El grupo llega a la localización señalada y se dan cuenta de que se disponen a competir en una escape room. Pronto descubrirán que, sea quien sea, el que ha organizado el juego conoce todos y cada uno de los detalles de sus vidas. Ahora no tendrán más remedio que encontrar las pistas y resolver el puzzle. Solo así saldrán con vida de esa habitación.

Thriller psicológico dirigido por Adam Robitel (Insidious. La última llave) que protagonizan Taylor Russell McKenzie (Lost in Space), Logan Miller (Con amor, Simon), Deborah Ann Woll (The Punisher), Jay Ellis (A Boy. A Girl. A Dream.), Nik Dodani (Alguien está vigilándote) y Tyler Labine (Supermaderos 2).

Ficha técnica

Video trailer de la película

Enlaces de descarga

Rip de Bluray

Descargar Escape Room (2019) REMUX 1080p Latino




Aportes de DPeliculasHDmega la pass es:dpeliculashdmega.org Aportes de CinemaniaHD la pass es:cinemaniahdd.com
Guardado en : Remux , Suspenso

Películas relacionadas

Comentarios 0