Escape Room 2: Reto mortal (2021) EXTENDED WEB-DL 4K UHD HDR Latino

15 vistas
1 estrella2 estrellas3 estrellas4 estrellas5 estrellas (Ninguna valoración todavía)
Cargando...

Información de Escape Room 2: Reto mortal (2021) EXTENDED WEB-DL 4K UHD HDR Latino

Datos de la película

  • Calidad: WEBDL
  • Audio: Español Latino AC3 5.1 WEB-DL - Ingles AC3 5.1 WEB-DL
  • Subtitulos: Español Latino SRT- FORZADOS SRT
  • Resolución: 3840x1600p
  • Formato: MKV
  • Codec: HEVC
  • Encoder: Melkor
  • Mediainfo: Clic para Mostrar Datos Ver
  • Escape Room 2 Reto mortal (2021) WEB UHD HDR Latino-CMHDD.mkv
    Format                      : Matroska
    Format version              : Version 4
    File size                   : 9.85 GiB
    Duration                    : 1 h 35 min
    Overall bit rate            : 14.7 Mb/s
    Movie name                  : Escape Room Tournament of Champions (2021) CinemaniaHDD.Net
    Encoded date                : UTC 2021-09-10 04:54:33
    Writing application         : mkvmerge v56.1.0 ('My Friend') 64-bit
    Writing library             : libebml v1.4.2 + libmatroska v1.6.4
    Attachments                 : CINEMANIAHD.png

    Video
    ID                          : 1
    Format                      : HEVC
    Format/Info                 : High Efficiency Video Coding
    Format profile              : Main 10@L5@High
    HDR format                  : SMPTE ST 2086, HDR10 compatible
    Codec ID                    : V_MPEGH/ISO/HEVC
    Duration                    : 1 h 35 min
    Bit rate                    : 14.0 Mb/s
    Width                       : 3 840 pixels
    Height                      : 1 600 pixels
    Display aspect ratio        : 2.40:1
    Frame rate mode             : Constant
    Frame rate                  : 23.976 (24000/1001) FPS
    Color space                 : YUV
    Chroma subsampling          : 4:2:0 (Type 2)
    Bit depth                   : 10 bits
    Bits/(Pixel*Frame)          : 0.095
    Stream size                 : 9.33 GiB (95%)
    Title                       : Web 2160p HDR [CinemaniaHDD]
    Default                     : Yes
    Forced                      : No
    Color range                 : Limited
    Color primaries             : BT.2020
    Transfer characteristics    : PQ
    Matrix coefficients         : BT.2020 non-constant
    Mastering display color pri : BT.2020
    Mastering display luminance : min: 0.0050 cd/m2, max: 1000 cd/m2
    Maximum Content Light Level : 1484 cd/m2
    Maximum Frame-Average Light : 417 cd/m2

    Audio #1
    ID                          : 2
    Format                      : AC-3
    Format/Info                 : Audio Coding 3
    Commercial name             : Dolby Digital
    Codec ID                    : A_AC3
    Duration                    : 1 h 35 min
    Bit rate mode               : Constant
    Bit rate                    : 384 kb/s
    Channel(s)                  : 6 channels
    Channel layout              : L R C LFE Ls Rs
    Sampling rate               : 48.0 kHz
    Frame rate                  : 31.250 FPS (1536 SPF)
    Compression mode            : Lossy
    Stream size                 : 263 MiB (3%)
    Title                       : Español Latino [CinemaniaHDD]
    Language                    : Spanish
    Service kind                : Complete Main
    Default                     : Yes
    Forced                      : Yes

    Audio #2
    ID                          : 3
    Format                      : AC-3
    Format/Info                 : Audio Coding 3
    Commercial name             : Dolby Digital
    Codec ID                    : A_AC3
    Duration                    : 1 h 35 min
    Bit rate mode               : Constant
    Bit rate                    : 384 kb/s
    Channel(s)                  : 6 channels
    Channel layout              : L R C LFE Ls Rs
    Sampling rate               : 48.0 kHz
    Frame rate                  : 31.250 FPS (1536 SPF)
    Compression mode            : Lossy
    Stream size                 : 263 MiB (3%)
    Title                       : Ingles [CinemaniaHDD]
    Language                    : English
    Service kind                : Complete Main
    Default                     : No
    Forced                      : No

    Text #1
    ID                          : 4
    Format                      : UTF-8
    Codec ID                    : S_TEXT/UTF8
    Codec ID/Info               : UTF-8 Plain Text
    Duration                    : 1 h 13 min
    Bit rate                    : 0 b/s
    Count of elements           : 5
    Stream size                 : 138 Bytes (0%)
    Title                       : Forzados-SRT [CinemaniaHDD]
    Language                    : Spanish
    Default                     : Yes
    Forced                      : Yes

    Text #2
    ID                          : 5
    Format                      : UTF-8
    Codec ID                    : S_TEXT/UTF8
    Codec ID/Info               : UTF-8 Plain Text
    Duration                    : 1 h 30 min
    Bit rate                    : 74 b/s
    Count of elements           : 1503
    Stream size                 : 49.7 KiB (0%)
    Title                       : Español-SRT [CinemaniaHDD]
    Language                    : Spanish
    Default                     : No
    Forced                      : No

    Text #3
    ID                          : 6
    Format                      : UTF-8
    Codec ID                    : S_TEXT/UTF8
    Codec ID/Info               : UTF-8 Plain Text
    Duration                    : 1 h 28 min
    Bit rate                    : 65 b/s
    Count of elements           : 1330
    Stream size                 : 42.6 KiB (0%)
    Title                       : Ingles-SRT [CinemaniaHDD]
    Language                    : English
    Default                     : No
    Forced                      : No

  • Peso: 9.85 GiB

Sinopsis

Descargar Escape Room 2: Reto mortal (2021) EXTENDED WEB-DL 4K UHD HDR Latino. Seis personas se encuentran encerradas de manera inesperada en una nueva serie de escape rooms, revelando paulatinamente aquello que tienen en común para sobrevivir… y descubriendo que todos ya habían jugado el juego con anterioridad.

Ficha técnica

Video trailer de la película

Enlaces de descarga

Rip de Bluray

Descargar Escape Room 2: Reto mortal (2021) EXTENDED WEB-DL 4K UHD HDR Latino




Aportes de DPeliculasHDmega la pass es:dpeliculashdmega.org Aportes de CinemaniaHD la pass es:cinemaniahdd.com

Películas relacionadas

Escape Room 2: Reto mortal (2021) EXTENDED WEB-DL 4K UHD HDR Latino pelicula full hd, Escape Room 2: Reto mortal (2021) EXTENDED WEB-DL 4K UHD HDR Latino mega latino, Escape Room 2: Reto mortal (2021) EXTENDED WEB-DL 4K UHD HDR Latino 4k latino, Escape Room 2: Reto mortal (2021) EXTENDED WEB-DL 4K UHD HDR Latino pelicula completa, Escape Room 2: Reto mortal (2021) EXTENDED WEB-DL 4K UHD HDR Latino descargar gratis, descargar Escape Room 2: Reto mortal (2021) EXTENDED WEB-DL 4K UHD HDR Latino pelicula latino, Escape Room 2: Reto mortal (2021) EXTENDED WEB-DL 4K UHD HDR Latino 1 link mega, Escape Room 2: Reto mortal (2021) EXTENDED WEB-DL 4K UHD HDR Latino 1 link google drive, Escape Room 2: Reto mortal (2021) EXTENDED WEB-DL 4K UHD HDR Latino hd 1080p latino.
Comentarios 0