Escape Room (2019) 1080p Latino

1.830 vistas
1 estrella2 estrellas3 estrellas4 estrellas5 estrellas (3 votos, promedio: 3,67 de 5)
Cargando…

Información de Escape Room (2019) 1080p Latino

Datos de la película

  • Calidad: 1080p
  • Audio: Español Latino AC3 5.1 DVD - Ingles AC3 5.1 BLURAY
  • Subtitulos: Español Latino SRT- FORZADOS SRT
  • Resolución: 1920x808
  • Formato: MKV
  • Codec: H.264
  • Encoder: Chesse92
  • Mediainfo: Clic para Mostrar Datos Ver
  • Escape Room (2019) 1080p Latino.mkv
    Format                      : Matroska
    Format version              : Version 4
    File size                   : 3.01 GiB
    Duration                    : 1 h 39 min
    Overall bit rate            : 4 329 kb/s
    Movie name                  : CinemaniaHDD.net
    Encoded date                : UTC 2019-04-11 20:57:12
    Writing application         : mkvmerge v30.1.0 ('Forever And More') 64-bit
    Writing library             : libebml v1.3.6 + libmatroska v1.4.9 / Lavf58.20.100

    Video
    ID                          : 1
    Format                      : AVC
    Format/Info                 : Advanced Video Codec
    Format profile              : [email protected]
    Format settings             : CABAC / 5 Ref Frames
    Format settings, CABAC      : Yes
    Format settings, ReFrames   : 5 frames
    Codec ID                    : V_MPEG4/ISO/AVC
    Duration                    : 1 h 39 min
    Bit rate                    : 3 500 kb/s
    Width                       : 1 920 pixels
    Height                      : 808 pixels
    Display aspect ratio        : 2.40:1
    Frame rate mode             : Constant
    Frame rate                  : 23.976 (24000/1001) FPS
    Color space                 : YUV
    Chroma subsampling          : 4:2:0
    Bit depth                   : 8 bits
    Scan type                   : Progressive
    Bits/(Pixel*Frame)          : 0.094
    Stream size                 : 2.43 GiB (81%)
    Writing library             : x264 core 157 r2935 545de2f
    Encoding settings           : cabac=1 / ref=5 / deblock=1:0:0 / analyse=0x3:0x113 / me=hex / subme=8 / psy=1 / psy_rd=1.00:0.00 / mixed_ref=1 / me_range=16 / chroma_me=1 / trellis=2 / 8x8dct=1 / cqm=0 / deadzone=21,11 / fast_pskip=1 / chroma_qp_offset=-2 / threads=25 / lookahead_threads=4 / sliced_threads=0 / nr=0 / decimate=1 / interlaced=0 / bluray_compat=0 / constrained_intra=0 / bframes=3 / b_pyramid=2 / b_adapt=1 / b_bias=0 / direct=3 / weightb=1 / open_gop=0 / weightp=2 / keyint=240 / keyint_min=24 / scenecut=40 / intra_refresh=0 / rc_lookahead=50 / rc=2pass / mbtree=1 / bitrate=3500 / ratetol=1.0 / qcomp=0.60 / qpmin=0 / qpmax=69 / qpstep=4 / cplxblur=20.0 / qblur=0.5 / vbv_maxrate=62500 / vbv_bufsize=78125 / nal_hrd=none / filler=0 / ip_ratio=1.40 / aq=1:1.00
    Default                     : Yes
    Forced                      : No
    Color range                 : Limited
    Color primaries             : BT.709
    Transfer characteristics    : BT.709
    Matrix coefficients         : BT.709

    Audio #1
    ID                          : 2
    Format                      : AC-3
    Format/Info                 : Audio Coding 3
    Commercial name             : Dolby Digital
    Codec ID                    : A_AC3
    Duration                    : 1 h 39 min
    Bit rate mode               : Constant
    Bit rate                    : 384 kb/s
    Channel(s)                  : 6 channels
    Channel layout              : L R C LFE Ls Rs
    Sampling rate               : 48.0 kHz
    Frame rate                  : 31.250 FPS (1536 SPF)
    Bit depth                   : 16 bits
    Compression mode            : Lossy
    Delay relative to video     : -5 ms
    Stream size                 : 274 MiB (9%)
    Language                    : Spanish
    Service kind                : Complete Main
    Default                     : Yes
    Forced                      : No

    Audio #2
    ID                          : 3
    Format                      : AC-3
    Format/Info                 : Audio Coding 3
    Commercial name             : Dolby Digital
    Codec ID                    : A_AC3
    Duration                    : 1 h 39 min
    Bit rate mode               : Constant
    Bit rate                    : 448 kb/s
    Channel(s)                  : 6 channels
    Channel layout              : L R C LFE Ls Rs
    Sampling rate               : 48.0 kHz
    Frame rate                  : 31.250 FPS (1536 SPF)
    Bit depth                   : 16 bits
    Compression mode            : Lossy
    Delay relative to video     : -5 ms
    Stream size                 : 319 MiB (10%)
    Title                       : Surround
    Language                    : English
    Service kind                : Complete Main
    Default                     : No
    Forced                      : No

    Text #1
    ID                          : 4
    Format                      : UTF-8
    Codec ID                    : S_TEXT/UTF8
    Codec ID/Info               : UTF-8 Plain Text
    Duration                    : 1 h 25 min
    Bit rate                    : 0 b/s
    Count of elements           : 2
    Stream size                 : 35.0 Bytes (0%)
    Language                    : Spanish
    Default                     : No
    Forced                      : No

    Text #2
    ID                          : 5
    Format                      : UTF-8
    Codec ID                    : S_TEXT/UTF8
    Codec ID/Info               : UTF-8 Plain Text
    Duration                    : 1 h 33 min
    Bit rate                    : 59 b/s
    Count of elements           : 1309
    Stream size                 : 40.9 KiB (0%)
    Language                    : Spanish
    Default                     : Yes
    Forced                      : No

    Menu
    00:00:00.000                : :00:00:00.000
    00:04:36.026                : :00:04:36.026
    00:09:25.648                : :00:09:25.648
    00:14:08.765                : :00:14:08.765
    00:19:46.102                : :00:19:46.102
    00:25:55.220                : :00:25:55.220
    00:33:08.945                : :00:33:08.945
    00:37:27.162                : :00:37:27.162
    00:43:05.083                : :00:43:05.082
    00:50:06.170                : :00:50:06.170
    00:53:58.569                : :00:53:58.569
    01:03:15.292                : :01:03:15.291
    01:09:07.894                : :01:09:07.894
    01:16:14.695                : :01:16:14.695
    01:22:48.755                : :01:22:48.755
    01:30:27.881                : :01:30:27.881

  • Peso: 3.01 GiB

Sinopsis

Thiller psicológico en el que seis extraños deberán usar su ingenio para ir encontrando pistas o morir en el intento.

Ficha técnica

Video trailer de la película

Enlaces de descarga

Rip de Bluray

Descargar Escape Room (2019) 1080p Latino




Aportes de DPeliculasHDmega la pass es:dpeliculashdmega.org Aportes de CinemaniaHD la pass es:cinemaniahdd.com

Películas relacionadas

Comentarios 1
  • dario - 09 abril, 2019

    Gracias amigo x tu esfuerzo , brindarnos todo sobre el mundo del cine , Sigan asi .
    Saludos