×

¿Problemas para descargar con Mozilla, EDGE? Deshabilita la opción "Abrir vinculos en una pestaña nueva" tal como lo muestra ésta imagen.

Escape from Alcatraz (1979) REMUX 1080p Latino – CMHDD

315 vistas

Información de Escape from Alcatraz (1979) REMUX 1080p Latino – CMHDD

Datos de la película

  • Calidad: Full 1080p
  • Audio: Español Latino AC3 2.0 BLURAY - Ingles AC3 5.1 BLURAY
  • Subtitulos: Español Latino PGS
  • Resolución: 1929x1080p
  • Formato:
  • Codec: H.264
  • Encoder: Dracarys
  • Mediainfo: Clic para Mostrar Datos Ver
  • Format                      : Matroska
    Format version              : Version 4
    File size                   : 31.4 GiB
    Duration                    : 1 h 51 min
    Overall bit rate mode       : Variable
    Overall bit rate            : 40.2 Mb/s
    Movie name                  : Escape from Alcatraz (1979) REMUX 1080p Latino - CMHDD
    Encoded date                : UTC 2023-04-06 21:02:56
    Writing application         : mkvmerge v47.0.0 ('Black Flag') 64-bit
    Writing library             : libebml v1.3.10 + libmatroska v1.5.2
    Cover                       : Yes
    Attachments                 : cover.jpg

    Video
    ID                          : 1
    ID in the original source m : 4113 (0x1011)
    Format                      : AVC
    Format/Info                 : Advanced Video Codec
    Format profile              : High@L4.1
    Format settings             : CABAC / 4 Ref Frames
    Format settings, CABAC      : Yes
    Format settings, Reference  : 4 frames
    Codec ID                    : V_MPEG4/ISO/AVC
    Duration                    : 1 h 51 min
    Bit rate mode               : Variable
    Bit rate                    : 36.8 Mb/s
    Maximum bit rate            : 38.0 Mb/s
    Width                       : 1 920 pixels
    Height                      : 1 080 pixels
    Display aspect ratio        : 16:9
    Frame rate mode             : Constant
    Frame rate                  : 23.976 (24000/1001) FPS
    Color space                 : YUV
    Chroma subsampling          : 4:2:0
    Bit depth                   : 8 bits
    Scan type                   : Progressive
    Bits/(Pixel*Frame)          : 0.741
    Stream size                 : 28.8 GiB (92%)
    Default                     : Yes
    Forced                      : No
    Original source medium      : Blu-ray

    Audio #1
    ID                          : 2
    ID in the original source m : 4352 (0x1100)
    Format                      : MLP FBA
    Format/Info                 : Meridian Lossless Packing FBA
    Commercial name             : Dolby TrueHD
    Codec ID                    : A_TRUEHD
    Duration                    : 1 h 51 min
    Bit rate mode               : Variable
    Bit rate                    : 2 413 kb/s
    Maximum bit rate            : 4 476 kb/s
    Channel(s)                  : 6 channels
    Channel layout              : L R C LFE Ls Rs
    Sampling rate               : 48.0 kHz
    Frame rate                  : 1 200.000 FPS (40 SPF)
    Compression mode            : Lossless
    Stream size                 : 1.89 GiB (6%)
    Language                    : English
    Default                     : No
    Forced                      : No
    Original source medium      : Blu-ray

    Audio #2
    ID                          : 3
    ID in the original source m : 4352 (0x1100)
    Format                      : AC-3
    Format/Info                 : Audio Coding 3
    Commercial name             : Dolby Digital
    Codec ID                    : A_AC3
    Duration                    : 1 h 51 min
    Bit rate mode               : Constant
    Bit rate                    : 640 kb/s
    Channel(s)                  : 6 channels
    Channel layout              : L R C LFE Ls Rs
    Sampling rate               : 48.0 kHz
    Frame rate                  : 31.250 FPS (1536 SPF)
    Compression mode            : Lossy
    Stream size                 : 512 MiB (2%)
    Language                    : English
    Service kind                : Complete Main
    Default                     : No
    Forced                      : No
    Original source medium      : Blu-ray

    Audio #3
    ID                          : 4
    ID in the original source m : 4355 (0x1103)
    Format                      : AC-3
    Format/Info                 : Audio Coding 3
    Commercial name             : Dolby Digital
    Codec ID                    : A_AC3
    Duration                    : 1 h 51 min
    Bit rate mode               : Constant
    Bit rate                    : 224 kb/s
    Channel(s)                  : 2 channels
    Channel layout              : L R
    Sampling rate               : 48.0 kHz
    Frame rate                  : 31.250 FPS (1536 SPF)
    Compression mode            : Lossy
    Stream size                 : 179 MiB (1%)
    Language                    : Spanish
    Service kind                : Complete Main
    Default                     : Yes
    Forced                      : No
    Original source medium      : Blu-ray

    Text
    ID                          : 5
    ID in the original source m : 4612 (0x1204)
    Format                      : PGS
    Muxing mode                 : zlib
    Codec ID                    : S_HDMV/PGS
    Codec ID/Info               : Picture based subtitle format used on BDs/HD-DVDs
    Duration                    : 1 h 51 min
    Bit rate                    : 13.0 kb/s
    Frame rate                  : 0.170 FPS
    Count of elements           : 1140
    Stream size                 : 10.4 MiB (0%)
    Language                    : Spanish
    Default                     : No
    Forced                      : No
    Original source medium      : Blu-ray

    Menu
    00:00:00.000                : en:Capítulo 01
    00:08:16.871                : en:Capítulo 02
    00:12:34.545                : en:Capítulo 03
    00:17:16.201                : en:Capítulo 04
    00:19:09.398                : en:Capítulo 05
    00:23:41.336                : en:Capítulo 06
    00:27:56.591                : en:Capítulo 07
    00:35:26.207                : en:Capítulo 08
    00:37:32.124                : en:Capítulo 09
    00:47:51.702                : en:Capítulo 10
    01:00:10.815                : en:Capítulo 11
    01:11:42.965                : en:Capítulo 12
    01:16:55.944                : en:Capítulo 13
    01:25:25.703                : en:Capítulo 14
    01:30:44.021                : en:Capítulo 15
    01:33:06.080                : en:Capítulo 16
    01:45:47.674                : en:Capítulo 17

  • Peso: 31.4 GiB

Sinopsis

San Francisco Bay, January 18, 1960. Frank Lee Morris is transferred to Alcatraz, a maximum security prison located on a rocky island. Although no one has ever managed to escape from there, Frank and other inmates begin to carefully prepare an escape plan.

Ficha técnica

Video trailer de la película

Enlaces de descarga

Rip de Bluray

Descargar Escape from Alcatraz (1979) REMUX 1080p Latino – CMHDD


Aportes de DPeliculasHDmega la pass es:dpeliculashdmega.org Aportes de CinemaniaHD la pass es:cinemaniahdd.com Aportes recientes:cinemaniahdd.net
Guardado en : Drama , Thriller

Películas relacionadas

descargar Escape from Alcatraz (1979) REMUX 1080p Latino – CMHDD Full 1080p 1080p gratis, Escape from Alcatraz (1979) REMUX 1080p Latino – CMHDD Full 1080p mega 1 link, Escape from Alcatraz (1979) REMUX 1080p Latino – CMHDD Full 1080p pelicula completa, descargar Escape from Alcatraz (1979) REMUX 1080p Latino – CMHDD Full 1080p gratis en mega.

Escape from Alcatraz (1979) REMUX 1080p Latino – CMHDD pelicula full hd, Escape from Alcatraz (1979) REMUX 1080p Latino – CMHDD mega latino, Escape from Alcatraz (1979) REMUX 1080p Latino – CMHDD 4k latino, Escape from Alcatraz (1979) REMUX 1080p Latino – CMHDD pelicula completa, Escape from Alcatraz (1979) REMUX 1080p Latino – CMHDD descargar gratis, descargar Escape from Alcatraz (1979) REMUX 1080p Latino – CMHDD pelicula latino, Escape from Alcatraz (1979) REMUX 1080p Latino – CMHDD 1 link mega, Escape from Alcatraz (1979) REMUX 1080p Latino – CMHDD 1 link google drive, Escape from Alcatraz (1979) REMUX 1080p Latino – CMHDD hd 1080p latino.
Comentarios 0