×

¿Problemas para descargar con Mozilla, EDGE? Deshabilita la opción "Abrir vinculos en una pestaña nueva" tal como lo muestra ésta imagen.

Escape bajo fuego (2023) HD 1080p Latino

196 vistas

Información de Escape bajo fuego (2023) HD 1080p Latino

Datos de la película

  • Calidad: 1080p
  • Audio: Español Latino AC3 5.1 WEB-DL - Ingles AC3 5.1 BLURAY
  • Subtitulos: Español Latino SRT- FORZADOS SRT
  • Resolución: 1920x804p
  • Formato: MKV
  • Codec: H.264
  • Encoder: Melkor
  • Mediainfo: Clic para Mostrar Datos Ver
  • Escape Bajo Fuego (2023) HD 1080p Latino.mkv
    Format                      : Matroska
    Format version              : Version 4
    File size                   : 3.64 GiB
    Duration                    : 1 h 59 min
    Overall bit rate            : 4 339 kb/s
    Movie name                  : Kandahar (2023) CinemaniaHDD.Net
    Encoded date                : UTC 2023-09-17 20:34:39
    Writing application         : mkvmerge v56.1.0 ('My Friend') 64-bit
    Writing library             : libebml v1.4.2 + libmatroska v1.6.4
    Attachments                 : CINEMANIAHD.png
    Site                        : CinemaniaHDD.Net
    Uploader                    : Melkor

    Video
    ID                          : 1
    Format                      : AVC
    Format/Info                 : Advanced Video Codec
    Format profile              : High@L4.1
    Format settings             : CABAC / 5 Ref Frames
    Format settings, CABAC      : Yes
    Format settings, Reference  : 5 frames
    Codec ID                    : V_MPEG4/ISO/AVC
    Duration                    : 1 h 59 min
    Bit rate                    : 3 500 kb/s
    Width                       : 1 920 pixels
    Height                      : 804 pixels
    Display aspect ratio        : 2.40:1
    Frame rate mode             : Constant
    Frame rate                  : 23.976 (24000/1001) FPS
    Color space                 : YUV
    Chroma subsampling          : 4:2:0
    Bit depth                   : 8 bits
    Scan type                   : Progressive
    Bits/(Pixel*Frame)          : 0.095
    Stream size                 : 2.88 GiB (79%)
    Title                       : Full HD1080p [CinemaniaHDD]
    Writing library             : x264 core 163 r3059 b684ebe0
    Encoding settings           : cabac=1 / ref=5 / deblock=1:-1:-1 / analyse=0x3:0x133 / me=umh / subme=9 / psy=1 / psy_rd=1.00:0.15 / mixed_ref=1 / me_range=16 / chroma_me=1 / trellis=2 / 8x8dct=1 / cqm=0 / deadzone=21,11 / fast_pskip=1 / chroma_qp_offset=-3 / threads=24 / lookahead_threads=2 / sliced_threads=0 / nr=0 / decimate=1 / interlaced=0 / bluray_compat=0 / constrained_intra=0 / bframes=3 / b_pyramid=2 / b_adapt=2 / b_bias=0 / direct=3 / weightb=1 / open_gop=0 / weightp=2 / keyint=240 / keyint_min=24 / scenecut=40 / intra_refresh=0 / rc_lookahead=60 / rc=abr / mbtree=1 / bitrate=3500 / ratetol=1.0 / qcomp=0.60 / qpmin=0 / qpmax=69 / qpstep=4 / vbv_maxrate=62500 / vbv_bufsize=78125 / nal_hrd=none / filler=0 / ip_ratio=1.40 / aq=1:1.00
    Default                     : Yes
    Forced                      : Yes
    Color range                 : Limited
    Color primaries             : BT.709
    Transfer characteristics    : BT.709
    Matrix coefficients         : BT.709

    Audio #1
    ID                          : 2
    Format                      : AC-3
    Format/Info                 : Audio Coding 3
    Commercial name             : Dolby Digital
    Codec ID                    : A_AC3
    Duration                    : 1 h 59 min
    Bit rate mode               : Constant
    Bit rate                    : 448 kb/s
    Channel(s)                  : 6 channels
    Channel layout              : L R C LFE Ls Rs
    Sampling rate               : 48.0 kHz
    Frame rate                  : 31.250 FPS (1536 SPF)
    Compression mode            : Lossy
    Delay relative to video     : -5 ms
    Stream size                 : 384 MiB (10%)
    Title                       : Español Latino [CinemaniaHDD]
    Language                    : Spanish
    Service kind                : Complete Main
    Default                     : Yes
    Forced                      : Yes

    Audio #2
    ID                          : 3
    Format                      : AC-3
    Format/Info                 : Audio Coding 3
    Commercial name             : Dolby Digital
    Codec ID                    : A_AC3
    Duration                    : 1 h 59 min
    Bit rate mode               : Constant
    Bit rate                    : 448 kb/s
    Channel(s)                  : 6 channels
    Channel layout              : L R C LFE Ls Rs
    Sampling rate               : 48.0 kHz
    Frame rate                  : 31.250 FPS (1536 SPF)
    Compression mode            : Lossy
    Delay relative to video     : -5 ms
    Stream size                 : 384 MiB (10%)
    Title                       : Ingles [CinemaniaHDD]
    Language                    : English
    Service kind                : Complete Main
    Default                     : No
    Forced                      : No

    Text #1
    ID                          : 4
    Format                      : UTF-8
    Codec ID                    : S_TEXT/UTF8
    Codec ID/Info               : UTF-8 Plain Text
    Duration                    : 1 h 51 min
    Bit rate                    : 9 b/s
    Count of elements           : 272
    Stream size                 : 7.82 KiB (0%)
    Title                       : Forzados-SRT [CinemaniaHDD]
    Language                    : Spanish
    Default                     : Yes
    Forced                      : Yes

    Text #2
    ID                          : 5
    Format                      : UTF-8
    Codec ID                    : S_TEXT/UTF8
    Codec ID/Info               : UTF-8 Plain Text
    Duration                    : 1 h 51 min
    Bit rate                    : 40 b/s
    Count of elements           : 1054
    Stream size                 : 33.0 KiB (0%)
    Title                       : Español-SRT [CinemaniaHDD]
    Language                    : Spanish
    Default                     : No
    Forced                      : No

    Menu
    00:00:00.000                : Chapter 01
    00:09:42.081                : Chapter 02
    00:13:29.100                : Chapter 03
    00:20:13.712                : Chapter 04
    00:26:00.267                : Chapter 05
    00:32:03.922                : Chapter 06
    00:36:29.062                : Chapter 07
    00:39:48.886                : Chapter 08
    00:45:41.197                : Chapter 09
    00:50:23.604                : Chapter 10
    00:54:40.319                : Chapter 11
    01:02:34.334                : Chapter 12
    01:07:01.976                : Chapter 13
    01:13:08.926                : Chapter 14
    01:20:34.913                : Chapter 15
    01:29:56.516                : Chapter 16
    01:37:50.823                : Chapter 17
    01:41:29.000                : Chapter 18
    01:46:19.415                : Chapter 19
    01:52:56.937                : Chapter 20

  • Peso: 3.64 GiB

Sinopsis

Descargar Escape bajo fuego (2023) HD 1080p Latino. Tras sabotear un reactor nuclear iraní, el agente de la CIA Tom Harris descubre que su identidad ha sido revelada a los medios después de que un informante expusiera la implicación de la CIA en la destrucción del reactor. Harris dispone de sólo 30 horas para llegar al aeropuerto de Kandahar y evitar su muerte y captura. Para conseguirlo, necesitará la ayuda de un traductor afgano llamado Mo que desprecia la violencia y el derramamiento de sangre causado por el conflicto bélico. Perseguidos por peligrosas amenazas, entre las que se encuentra el despiadado asesino Kahil, Tom y Mo se verán obligados a unir fuerzas para llegar, de una pieza, a Kandahar.

Ficha técnica

Video trailer de la película

Enlaces de descarga

Rip de Bluray

Descargar Escape bajo fuego (2023) HD 1080p Latino




Aportes de DPeliculasHDmega la pass es:dpeliculashdmega.org Aportes de CinemaniaHD la pass es:cinemaniahdd.com Aportes recientes:cinemaniahdd.net
Guardado en : Action , HD 1080p , Thriller

Películas relacionadas

  • Milagros Inesperados (1999) 1080p Latino-CMHDD

    Milagros Inesperados (1999) 1080p Latino-CMHDD

    1999
    Milagros Inesperados (1999) 1080p Latino-CMHDD

    3h 9m 1999

    Descargar Milagros Inesperados (1999) 1080p Latino-CMHDD. En el sur de los Estados Unidos, en plena Depresión,...

    Director: Susan Malerstein

    Género: Crimen

    Actores: William Sadler

  • Wanted Man (2024) HD 1080p Latino

    Wanted Man (2024) HD 1080p Latino

    2024
    Wanted Man (2024) HD 1080p Latino

    1h 25m 2024

    Descargar Wanted Man (2024) HD 1080p Latino. Sigue a un oficial de policía que debe recuperar a un testigo...

    Director: Kevin Leslie

    Género: Acción

    Actores: Xzavier Estrada

  • Arthur: Una Amistad sin Limites (2024) HD 1080p Latino

    Arthur: Una Amistad sin Limites (2024) HD 1080p Latino

    2024
    Arthur: Una Amistad sin Limites (2024) HD 1080p Latino

    1h 47m 2024

    Descargar Arthur: Una Amistad sin Limites (2024) HD 1080p Latino. Mikael Lindnord, el capitán del equipo...

    Director: Simon Cellan Jones

    Género: Aventura

    Actores: Zamantha Díaz

  • Antichrist (2009) 1080p SUB-CMHDD

    Antichrist (2009) 1080p SUB-CMHDD

    2009
    Antichrist (2009) 1080p SUB-CMHDD

    1h 48m 2009

    Descargar Antichrist (2009) 1080p SUB-CMHDD. Una pareja sumida en el dolor se retira a una cabaña perdida...

    Director: Tómas Gislason

    Género: Drama

    Actores: Willem Dafoe

  • En llamas (2023) HD 1080p Latino

    En llamas (2023) HD 1080p Latino

    2023
    En llamas (2023) HD 1080p Latino

    1h 17m 2023

    Descargar En llamas (2023) HD 1080p Latino. Una familia vive en una casa rodante en el bosque y de repente...

    Director: Peter Facinelli

    Género: Acción

    Actores: Ross McCall

descargar Escape bajo fuego (2023) HD 1080p Latino 1080p 1080p gratis, Escape bajo fuego (2023) HD 1080p Latino 1080p mega 1 link, Escape bajo fuego (2023) HD 1080p Latino 1080p pelicula completa, descargar Escape bajo fuego (2023) HD 1080p Latino 1080p gratis en mega.

Escape bajo fuego (2023) HD 1080p Latino pelicula full hd, Escape bajo fuego (2023) HD 1080p Latino mega latino, Escape bajo fuego (2023) HD 1080p Latino 4k latino, Escape bajo fuego (2023) HD 1080p Latino pelicula completa, Escape bajo fuego (2023) HD 1080p Latino descargar gratis, descargar Escape bajo fuego (2023) HD 1080p Latino pelicula latino, Escape bajo fuego (2023) HD 1080p Latino 1 link mega, Escape bajo fuego (2023) HD 1080p Latino 1 link google drive, Escape bajo fuego (2023) HD 1080p Latino hd 1080p latino.
Comentarios 0