×

¿Problemas para descargar con Mozilla, EDGE? Deshabilita la opción "Abrir vinculos en una pestaña nueva" tal como lo muestra ésta imagen.

Érase una vez… (2020) PLACEBO Full HD 1080p Latino

240 vistas

Información de Érase una vez… (2020) PLACEBO Full HD 1080p Latino

Datos de la película

  • Calidad: Full 1080p
  • Audio: Español Latino DTS 5.1 BLURAY - Ingles DTS 5.1 BLURAY
  • Subtitulos: Español Latino SRT- FORZADOS SRT
  • Resolución: 1920x1080p
  • Formato: MKV
  • Codec: H.264
  • Encoder: Melkor
  • Mediainfo: Clic para Mostrar Datos Ver
  • Erase Una Vez (2020) PLACEBO 1080p Latino.mkv
    Format                      : Matroska
    Format version              : Version 4
    File size                   : 5.34 GiB
    Duration                    : 1 h 33 min
    Overall bit rate            : 8 148 kb/s
    Movie name                  : Come Away (2020) CinemaniaHDD.Net
    Encoded date                : UTC 2021-05-15 16:32:48
    Writing application         : mkvmerge v56.1.0 ('My Friend') 64-bit
    Writing library             : libebml v1.4.2 + libmatroska v1.6.4
    Attachments                 : CINEMANIAHD.png

    Video
    ID                          : 1
    Format                      : AVC
    Format/Info                 : Advanced Video Codec
    Format profile              : High@L4.1
    Format settings             : CABAC / 4 Ref Frames
    Format settings, CABAC      : Yes
    Format settings, Reference  : 4 frames
    Codec ID                    : V_MPEG4/ISO/AVC
    Duration                    : 1 h 33 min
    Bit rate                    : 5 127 kb/s
    Width                       : 1 920 pixels
    Height                      : 1 080 pixels
    Display aspect ratio        : 16:9
    Frame rate mode             : Constant
    Frame rate                  : 24.000 FPS
    Color space                 : YUV
    Chroma subsampling          : 4:2:0
    Bit depth                   : 8 bits
    Scan type                   : Progressive
    Bits/(Pixel*Frame)          : 0.103
    Stream size                 : 3.36 GiB (63%)
    Title                       : Full HD1080p [CinemaniaHDD]
    Writing library             : x264 core 157 r2935 545de2f
    Encoding settings           : cabac=1 / ref=4 / deblock=1:0:0 / analyse=0x3:0x133 / me=tesa / subme=11 / psy=1 / psy_rd=1.00:0.00 / mixed_ref=1 / me_range=24 / chroma_me=1 / trellis=2 / 8x8dct=1 / cqm=0 / deadzone=21,11 / fast_pskip=0 / chroma_qp_offset=-2 / threads=24 / lookahead_threads=6 / sliced_threads=0 / nr=0 / decimate=1 / interlaced=0 / bluray_compat=0 / constrained_intra=0 / bframes=16 / b_pyramid=2 / b_adapt=2 / b_bias=0 / direct=3 / weightb=1 / open_gop=0 / weightp=2 / keyint=240 / keyint_min=24 / scenecut=40 / intra_refresh=0 / rc_lookahead=60 / rc=crf / mbtree=1 / crf=19.0 / qcomp=0.60 / qpmin=0 / qpmax=69 / qpstep=4 / vbv_maxrate=62500 / vbv_bufsize=78125 / crf_max=0.0 / nal_hrd=none / filler=0 / ip_ratio=1.40 / aq=1:1.00
    Default                     : Yes
    Forced                      : Yes
    Color range                 : Limited
    Color primaries             : BT.709
    Transfer characteristics    : BT.709
    Matrix coefficients         : BT.709

    Audio #1
    ID                          : 2
    Format                      : DTS
    Format/Info                 : Digital Theater Systems
    Codec ID                    : A_DTS
    Duration                    : 1 h 33 min
    Bit rate mode               : Constant
    Bit rate                    : 1 509 kb/s
    Channel(s)                  : 6 channels
    Channel layout              : C L R Ls Rs LFE
    Sampling rate               : 48.0 kHz
    Frame rate                  : 93.750 FPS (512 SPF)
    Bit depth                   : 24 bits
    Compression mode            : Lossy
    Delay relative to video     : 4 ms
    Stream size                 : 1 013 MiB (19%)
    Title                       : Español Latino [CinemaniaHDD]
    Language                    : Spanish
    Default                     : Yes
    Forced                      : Yes

    Audio #2
    ID                          : 3
    Format                      : DTS
    Format/Info                 : Digital Theater Systems
    Codec ID                    : A_DTS
    Duration                    : 1 h 33 min
    Bit rate mode               : Constant
    Bit rate                    : 1 509 kb/s
    Channel(s)                  : 6 channels
    Channel layout              : C L R Ls Rs LFE
    Sampling rate               : 48.0 kHz
    Frame rate                  : 93.750 FPS (512 SPF)
    Bit depth                   : 24 bits
    Compression mode            : Lossy
    Stream size                 : 1 013 MiB (19%)
    Title                       : Ingles [CinemaniaHDD]
    Language                    : English
    Default                     : No
    Forced                      : No

    Text #1
    ID                          : 4
    Format                      : UTF-8
    Codec ID                    : S_TEXT/UTF8
    Codec ID/Info               : UTF-8 Plain Text
    Duration                    : 43 min 24 s
    Bit rate                    : 0 b/s
    Count of elements           : 11
    Stream size                 : 323 Bytes (0%)
    Title                       : Forzados-SRT [CinemaniaHDD]
    Language                    : Spanish
    Default                     : Yes
    Forced                      : Yes

    Text #2
    ID                          : 5
    Format                      : UTF-8
    Codec ID                    : S_TEXT/UTF8
    Codec ID/Info               : UTF-8 Plain Text
    Duration                    : 1 h 26 min
    Bit rate                    : 36 b/s
    Count of elements           : 782
    Stream size                 : 23.4 KiB (0%)
    Title                       : Español-SRT [CinemaniaHDD]
    Language                    : Spanish
    Default                     : No
    Forced                      : No

    Text #3
    ID                          : 6
    Format                      : UTF-8
    Codec ID                    : S_TEXT/UTF8
    Codec ID/Info               : UTF-8 Plain Text
    Duration                    : 1 h 26 min
    Bit rate                    : 36 b/s
    Count of elements           : 812
    Stream size                 : 23.1 KiB (0%)
    Title                       : Ingles-SRT [CinemaniaHDD]
    Language                    : English
    Default                     : No
    Forced                      : No

    Menu
    00:00:00.000                : Chapter 01
    00:12:19.208                : Chapter 02
    00:23:21.416                : Chapter 03
    00:34:44.750                : Chapter 04
    00:46:40.666                : Chapter 05
    01:00:24.208                : Chapter 06
    01:13:51.416                : Chapter 07
    01:27:52.000                : Chapter 08

  • Peso: 5.34 GiB

Sinopsis

Descargar Érase una vez… (2020) PLACEBO Full HD 1080p Latino. Antes de que Alicia se adentrase en el País de las Maravillas y de que Peter se convirtiese en Pan, ambos eran hermanos. Después de que su hermano mayor fallezca en un trágico accidente, intentan salvar a sus padres de la espiral de desesperación, hasta que finalmente se ven obligados a elegir entre su hogar y su imaginación, creando así la antesala de sus icónicos viajes al País de las Maravillas y al de Nunca Jamás.

Ficha técnica

Video trailer de la película

Enlaces de descarga

Rip de Bluray

Descargar Érase una vez… (2020) PLACEBO Full HD 1080p Latino




Aportes de DPeliculasHDmega la pass es:dpeliculashdmega.org Aportes de CinemaniaHD la pass es:cinemaniahdd.com

Películas relacionadas

  • Willow (2022) Temporada 1 WEB-DL 1080p Latino

    Willow (2022) Temporada 1 WEB-DL 1080p Latino

    2022
    Willow (2022) Temporada 1 WEB-DL 1080p Latino

    0h 0m 2022

    Descargar Willow (2022) Temporada 1 WEB-DL 1080p Latino. Veinte años después de vencer a la reina Bavmorda,...

    Género: Action & Adventure

    Actores: Warwick Davis

  • Quantum Leap (2022) Temporada 1 WEB-DL 1080p Latino

    Quantum Leap (2022) Temporada 1 WEB-DL 1080p Latino

    2022
    Quantum Leap (2022) Temporada 1 WEB-DL 1080p Latino

    0h 43m 2022

    Han pasado 27 años desde que el Dr. Sam Beckett pisó el acelerador Quantum Leap y desapareció. Ahora...

    Director: Donald P. Bellisario

    Género: Drama

    Actores: Raymond Lee

  • Shrek 2 (2004) REMUX 4K HDR Latino – CMHDD

    Shrek 2 (2004) REMUX 4K HDR Latino – CMHDD

    2004
    Shrek 2 (2004) REMUX 4K HDR Latino – CMHDD

    1h 32m 2004

    Cuando Shrek y la princesa Fiona regresan de su luna de miel, los padres de ella los invitan a visitar...

    Director: Matt Aspbury

    Género: Animación

    Actores: Wendy Bilanski

descargar Érase una vez… (2020) PLACEBO Full HD 1080p Latino Full 1080p 1080p gratis, Érase una vez… (2020) PLACEBO Full HD 1080p Latino Full 1080p mega 1 link, Érase una vez… (2020) PLACEBO Full HD 1080p Latino Full 1080p pelicula completa, descargar Érase una vez… (2020) PLACEBO Full HD 1080p Latino Full 1080p gratis en mega.

Érase una vez… (2020) PLACEBO Full HD 1080p Latino pelicula full hd, Érase una vez… (2020) PLACEBO Full HD 1080p Latino mega latino, Érase una vez… (2020) PLACEBO Full HD 1080p Latino 4k latino, Érase una vez… (2020) PLACEBO Full HD 1080p Latino pelicula completa, Érase una vez… (2020) PLACEBO Full HD 1080p Latino descargar gratis, descargar Érase una vez… (2020) PLACEBO Full HD 1080p Latino pelicula latino, Érase una vez… (2020) PLACEBO Full HD 1080p Latino 1 link mega, Érase una vez… (2020) PLACEBO Full HD 1080p Latino 1 link google drive, Érase una vez… (2020) PLACEBO Full HD 1080p Latino hd 1080p latino.
Comentarios 0