×

¿Problemas para descargar con Mozilla, EDGE? Deshabilita la opción "Abrir vinculos en una pestaña nueva" tal como lo muestra ésta imagen.

Érase una vez… (2020) HD 1080p Latino

213 vistas

Información de Érase una vez… (2020) HD 1080p Latino

Datos de la película

  • Calidad: 1080p
  • Audio: Español Latino AC3 5.1 BLURAY - Ingles AC3 5.1 BLURAY
  • Subtitulos: Español Latino SRT- FORZADOS SRT
  • Resolución: 1920x804p
  • Formato: MKV
  • Codec: H.264
  • Encoder: Melkor
  • Mediainfo: Clic para Mostrar Datos Ver
  • Erase Una Vez (2020) HD 1080p Latino.mkv
    Format                      : Matroska
    Format version              : Version 4
    File size                   : 3.01 GiB
    Duration                    : 1 h 33 min
    Overall bit rate            : 4 590 kb/s
    Movie name                  : Come Away (2020) CinemaniaHDD.Net
    Encoded date                : UTC 2021-05-15 16:43:17
    Writing application         : mkvmerge v56.1.0 ('My Friend') 64-bit
    Writing library             : libebml v1.4.2 + libmatroska v1.6.4
    Attachments                 : CINEMANIAHD.png

    Video
    ID                          : 1
    Format                      : AVC
    Format/Info                 : Advanced Video Codec
    Format profile              : High@L4.1
    Format settings             : CABAC / 5 Ref Frames
    Format settings, CABAC      : Yes
    Format settings, Reference  : 5 frames
    Codec ID                    : V_MPEG4/ISO/AVC
    Duration                    : 1 h 33 min
    Bit rate                    : 3 500 kb/s
    Width                       : 1 920 pixels
    Height                      : 804 pixels
    Display aspect ratio        : 2.40:1
    Frame rate mode             : Constant
    Frame rate                  : 24.000 FPS
    Color space                 : YUV
    Chroma subsampling          : 4:2:0
    Bit depth                   : 8 bits
    Scan type                   : Progressive
    Bits/(Pixel*Frame)          : 0.094
    Stream size                 : 2.30 GiB (76%)
    Title                       : HD1080p [CinemaniaHDD]
    Writing library             : x264 core 157 r2935 545de2f
    Encoding settings           : cabac=1 / ref=5 / deblock=1:-1:-1 / analyse=0x3:0x133 / me=umh / subme=9 / psy=1 / psy_rd=1.00:0.15 / mixed_ref=1 / me_range=16 / chroma_me=1 / trellis=2 / 8x8dct=1 / cqm=0 / deadzone=21,11 / fast_pskip=1 / chroma_qp_offset=-3 / threads=24 / lookahead_threads=2 / sliced_threads=0 / nr=0 / decimate=1 / interlaced=0 / bluray_compat=0 / constrained_intra=0 / bframes=3 / b_pyramid=2 / b_adapt=2 / b_bias=0 / direct=3 / weightb=1 / open_gop=0 / weightp=2 / keyint=240 / keyint_min=24 / scenecut=40 / intra_refresh=0 / rc_lookahead=60 / rc=2pass / mbtree=1 / bitrate=3500 / ratetol=1.0 / qcomp=0.60 / qpmin=0 / qpmax=69 / qpstep=4 / cplxblur=20.0 / qblur=0.5 / vbv_maxrate=62500 / vbv_bufsize=78125 / nal_hrd=none / filler=0 / ip_ratio=1.40 / aq=1:1.00
    Default                     : Yes
    Forced                      : No
    Color range                 : Limited
    Color primaries             : BT.709
    Transfer characteristics    : BT.709
    Matrix coefficients         : BT.709

    Audio #1
    ID                          : 2
    Format                      : AC-3
    Format/Info                 : Audio Coding 3
    Commercial name             : Dolby Digital
    Codec ID                    : A_AC3
    Duration                    : 1 h 33 min
    Bit rate mode               : Constant
    Bit rate                    : 640 kb/s
    Channel(s)                  : 6 channels
    Channel layout              : L R C LFE Ls Rs
    Sampling rate               : 48.0 kHz
    Frame rate                  : 31.250 FPS (1536 SPF)
    Compression mode            : Lossy
    Delay relative to video     : -5 ms
    Stream size                 : 430 MiB (14%)
    Title                       : Español Latino [CinemaniaHDD]
    Language                    : Spanish
    Service kind                : Complete Main
    Default                     : Yes
    Forced                      : No

    Audio #2
    ID                          : 3
    Format                      : AC-3
    Format/Info                 : Audio Coding 3
    Commercial name             : Dolby Digital
    Codec ID                    : A_AC3
    Duration                    : 1 h 33 min
    Bit rate mode               : Constant
    Bit rate                    : 448 kb/s
    Channel(s)                  : 6 channels
    Channel layout              : L R C LFE Ls Rs
    Sampling rate               : 48.0 kHz
    Frame rate                  : 31.250 FPS (1536 SPF)
    Compression mode            : Lossy
    Delay relative to video     : -5 ms
    Stream size                 : 301 MiB (10%)
    Title                       : Ingles [CinemaniaHDD]
    Language                    : English
    Service kind                : Complete Main
    Default                     : No
    Forced                      : No

    Text #1
    ID                          : 4
    Format                      : UTF-8
    Codec ID                    : S_TEXT/UTF8
    Codec ID/Info               : UTF-8 Plain Text
    Duration                    : 43 min 24 s
    Bit rate                    : 0 b/s
    Count of elements           : 11
    Stream size                 : 323 Bytes (0%)
    Title                       : Forzados-SRT [CinemaniaHDD]
    Language                    : Spanish
    Default                     : Yes
    Forced                      : Yes

    Text #2
    ID                          : 5
    Format                      : UTF-8
    Codec ID                    : S_TEXT/UTF8
    Codec ID/Info               : UTF-8 Plain Text
    Duration                    : 1 h 26 min
    Bit rate                    : 36 b/s
    Count of elements           : 782
    Stream size                 : 23.4 KiB (0%)
    Title                       : Español-SRT [CinemaniaHDD]
    Language                    : Spanish
    Default                     : No
    Forced                      : No

    Text #3
    ID                          : 6
    Format                      : UTF-8
    Codec ID                    : S_TEXT/UTF8
    Codec ID/Info               : UTF-8 Plain Text
    Duration                    : 1 h 26 min
    Bit rate                    : 36 b/s
    Count of elements           : 812
    Stream size                 : 23.1 KiB (0%)
    Title                       : Ingles-SRT [CinemaniaHDD]
    Language                    : English
    Default                     : No
    Forced                      : No

    Menu
    00:00:00.000                : Chapter 01
    00:12:19.208                : Chapter 02
    00:23:21.416                : Chapter 03
    00:34:44.750                : Chapter 04
    00:46:40.666                : Chapter 05
    01:00:24.208                : Chapter 06
    01:13:51.416                : Chapter 07
    01:27:52.000                : Chapter 08

  • Peso: 3.01 GiB

Sinopsis

Descargar Érase una vez… (2020) HD 1080p Latino. Antes de que Alicia se adentrase en el País de las Maravillas y de que Peter se convirtiese en Pan, ambos eran hermanos. Después de que su hermano mayor fallezca en un trágico accidente, intentan salvar a sus padres de la espiral de desesperación, hasta que finalmente se ven obligados a elegir entre su hogar y su imaginación, creando así la antesala de sus icónicos viajes al País de las Maravillas y al de Nunca Jamás.

Ficha técnica

Video trailer de la película

Enlaces de descarga

Rip de Bluray

Descargar Érase una vez… (2020) HD 1080p Latino




Aportes de DPeliculasHDmega la pass es:dpeliculashdmega.org Aportes de CinemaniaHD la pass es:cinemaniahdd.com
Guardado en : Aventura , Drama , Fantasía , HD 1080p

Películas relacionadas

  • Stromboli (2022) NF WEB-DL 1080p Latino

    Stromboli (2022) NF WEB-DL 1080p Latino

    2022
    Stromboli (2022) NF WEB-DL 1080p Latino

    1h 26m 2022

    Descargar Stromboli (2022) NF WEB-DL 1080p Latino. Sara, una mujer que se ha divorciado recientemente,...

    Director: Michiel van Erp

    Género: Drama

    Actores: Tim McInnerny

  • Infiesto (2023) NF WEB-DL 1080p Castellano

    Infiesto (2023) NF WEB-DL 1080p Castellano

    2023
    Infiesto (2023) NF WEB-DL 1080p Castellano

    1h 36m 2023

    Descargar Infiesto (2023) NF WEB-DL 1080p Castellano. Mientras el coronavirus trastoca sus vidas, dos...

    Director: Patxi Amezcua

    Género: Crimen

    Actores: Luis Zahera

  • Espiritu Libre (2023) NF WEB-DL 1080p Latino

    Espiritu Libre (2023) NF WEB-DL 1080p Latino

    2023
    Espiritu Libre (2023) NF WEB-DL 1080p Latino

    1h 49m 2023

    Descargar Espiritu Libre (2023) NF WEB-DL 1080p Latino. La película se basa en la increíble historia...

    Director: Sarah Spillane

    Género: Aventura

    Actores: Vivien Turner

  • Un mundo extraño (2022) HD BDRip 1080p Latino

    Un mundo extraño (2022) HD BDRip 1080p Latino

    2022
    Un mundo extraño (2022) HD BDRip 1080p Latino

    1h 42m 2022

    Descargar Un mundo extraño (2022) HD BDRip 1080p Latino. Los Clades son una familia conocida en todo...

    Director: Thai Bettistea

    Género: Animación

    Actores: Reed Buck

descargar Érase una vez… (2020) HD 1080p Latino 1080p 1080p gratis, Érase una vez… (2020) HD 1080p Latino 1080p mega 1 link, Érase una vez… (2020) HD 1080p Latino 1080p pelicula completa, descargar Érase una vez… (2020) HD 1080p Latino 1080p gratis en mega.

Érase una vez… (2020) HD 1080p Latino pelicula full hd, Érase una vez… (2020) HD 1080p Latino mega latino, Érase una vez… (2020) HD 1080p Latino 4k latino, Érase una vez… (2020) HD 1080p Latino pelicula completa, Érase una vez… (2020) HD 1080p Latino descargar gratis, descargar Érase una vez… (2020) HD 1080p Latino pelicula latino, Érase una vez… (2020) HD 1080p Latino 1 link mega, Érase una vez… (2020) HD 1080p Latino 1 link google drive, Érase una vez… (2020) HD 1080p Latino hd 1080p latino.
Comentarios 0