×

¿Problemas para descargar con Mozilla, EDGE? Deshabilita la opción "Abrir vinculos en una pestaña nueva" tal como lo muestra ésta imagen.

Eragon (2006) REMUX 1080p Latino

150 vistas

Información de Eragon (2006) REMUX 1080p Latino

Datos de la película

  • Calidad: Full 1080p
  • Audio: Español Latino AC3 5.1 BLURAY - Ingles DTS 5.1 BLURAY
  • Subtitulos: Español Latino PGS - Ingles PGS
  • Resolución: 1920x1080p
  • Formato: MKV
  • Codec: H.264
  • Encoder: CinefiloCool
  • Mediainfo: Clic para Mostrar Datos Ver
  • Eragon (2006) REMUX 1080p Latino-CMHDD.mkv
    Format                      : Matroska
    Format version              : Version 4
    File size                   : 27.0 GiB
    Duration                    : 1 h 44 min
    Overall bit rate mode       : Variable
    Overall bit rate            : 37.2 Mb/s
    Movie name                  : Eragon (2006) CinemaniaHDD.Net
    Encoded date                : UTC 2021-10-26 05:14:03
    Writing application         : mkvmerge v56.1.0 ('My Friend') 64-bit
    Writing library             : libebml v1.4.2 + libmatroska v1.6.4
    Attachments                 : CINEMANIAHD.png

    Video
    ID                          : 1
    Format                      : AVC
    Format/Info                 : Advanced Video Codec
    Format profile              : High@L4.1
    Format settings             : CABAC / 4 Ref Frames
    Format settings, CABAC      : Yes
    Format settings, Reference  : 4 frames
    Codec ID                    : V_MPEG4/ISO/AVC
    Duration                    : 1 h 44 min
    Bit rate mode               : Variable
    Bit rate                    : 32.7 Mb/s
    Maximum bit rate            : 33.8 Mb/s
    Width                       : 1 920 pixels
    Height                      : 1 080 pixels
    Display aspect ratio        : 16:9
    Frame rate mode             : Constant
    Frame rate                  : 23.976 (24000/1001) FPS
    Color space                 : YUV
    Chroma subsampling          : 4:2:0
    Bit depth                   : 8 bits
    Scan type                   : Progressive
    Bits/(Pixel*Frame)          : 0.657
    Stream size                 : 23.7 GiB (88%)
    Title                       : REMUX HD1080p [CinemaniaHDD]
    Language                    : English
    Default                     : Yes
    Forced                      : Yes
    Color range                 : Limited
    Color primaries             : BT.709
    Transfer characteristics    : BT.709
    Matrix coefficients         : BT.709

    Audio #1
    ID                          : 2
    Format                      : AC-3
    Format/Info                 : Audio Coding 3
    Commercial name             : Dolby Digital
    Codec ID                    : A_AC3
    Duration                    : 1 h 44 min
    Bit rate mode               : Constant
    Bit rate                    : 448 kb/s
    Channel(s)                  : 6 channels
    Channel layout              : L R C LFE Ls Rs
    Sampling rate               : 48.0 kHz
    Frame rate                  : 31.250 FPS (1536 SPF)
    Compression mode            : Lossy
    Stream size                 : 333 MiB (1%)
    Title                       : Español Latino [CinemaniaHDD]
    Language                    : Spanish
    Service kind                : Complete Main
    Default                     : Yes
    Forced                      : Yes

    Audio #2
    ID                          : 3
    Format                      : DTS XLL
    Format/Info                 : Digital Theater Systems
    Commercial name             : DTS-HD Master Audio
    Codec ID                    : A_DTS
    Duration                    : 1 h 44 min
    Bit rate mode               : Variable
    Bit rate                    : 4 042 kb/s
    Channel(s)                  : 6 channels
    Channel layout              : C L R Ls Rs LFE
    Sampling rate               : 48.0 kHz
    Frame rate                  : 93.750 FPS (512 SPF)
    Bit depth                   : 24 bits
    Compression mode            : Lossless
    Stream size                 : 2.94 GiB (11%)
    Title                       : Ingles [CinemaniaHDD]
    Language                    : English
    Default                     : No
    Forced                      : No

    Text #1
    ID                          : 4
    Format                      : PGS
    Muxing mode                 : zlib
    Codec ID                    : S_HDMV/PGS
    Codec ID/Info               : Picture based subtitle format used on BDs/HD-DVDs
    Duration                    : 1 h 43 min
    Bit rate                    : 17.9 kb/s
    Count of elements           : 1580
    Stream size                 : 13.2 MiB (0%)
    Title                       : Español-PGS [CinemaniaHDD]
    Language                    : Spanish
    Default                     : No
    Forced                      : No

    Text #2
    ID                          : 5
    Format                      : PGS
    Muxing mode                 : zlib
    Codec ID                    : S_HDMV/PGS
    Codec ID/Info               : Picture based subtitle format used on BDs/HD-DVDs
    Duration                    : 1 h 43 min
    Bit rate                    : 18.6 kb/s
    Count of elements           : 1582
    Stream size                 : 13.8 MiB (0%)
    Title                       : Ingles-PGS [CinemaniaHDD]
    Language                    : English
    Default                     : No
    Forced                      : No

    Text #3
    ID                          : 6
    Format                      : UTF-8
    Codec ID                    : S_TEXT/UTF8
    Codec ID/Info               : UTF-8 Plain Text
    Duration                    : 4 s 700 ms
    Bit rate                    : 10 b/s
    Count of elements           : 1
    Stream size                 : 6.00 Bytes (0%)
    Title                       : Forzados-SRT [CinemaniaHDD]
    Language                    : Spanish
    Default                     : Yes
    Forced                      : Yes

    Text #4
    ID                          : 7
    Format                      : UTF-8
    Codec ID                    : S_TEXT/UTF8
    Codec ID/Info               : UTF-8 Plain Text
    Duration                    : 1 h 36 min
    Bit rate                    : 34 b/s
    Count of elements           : 790
    Stream size                 : 24.6 KiB (0%)
    Title                       : Español-SRT [CinemaniaHDD]
    Language                    : Spanish
    Default                     : No
    Forced                      : No

    Menu
    00:00:00.000                : Opening Credits / The King's Stone
    00:06:30.348                : Eragon
    00:08:56.202                : Roran Leaves Home
    00:13:57.586                : Hatched
    00:17:14.700                : Death Order
    00:19:30.878                : Dragons and Dragon Riders
    00:25:55.804                : Life in Danger
    00:30:46.386                : Chosen
    00:35:46.394                : The Journey Begins
    00:40:22.419                : Fortune Teller
    00:44:05.434                : Instinct
    00:48:05.632                : Finally Flying
    00:51:19.326                : A Fellow Rider
    00:55:40.545                : Girl of His Dreams
    01:00:27.040                : Saving Arya
    01:04:49.594                : Dying with Honor
    01:09:21.031                : Murtagh
    01:11:23.278                : The Varden
    01:17:40.614                : Preparing for Battle
    01:21:45.275                : Together As One
    01:23:26.835                : To Win or Die
    01:29:38.289                : Losing Strength
    01:31:50.046                : A Living Legend
    01:36:43.339                : Closing Credits

  • Peso: 27.0 GiB

Sinopsis

Descargar Eragon (2006) REMUX 1080p Latino. En el reino legendario de Alagaësia la guerra se está gestando. Los Jinetes protectores de la paz del Imperio y los únicos capaces de controlar a los inteligentes dragones, se han extinguido o han pasado a formar parte de las tropas del malvado rey Galbatorix. Los elfos hace tiempo que se han exiliado a un lugar oculto y los vardenos, un grupo disidente, se ocultan en ciudades protegidas. Cuando Eragon, un joven de 15 años que vive en una pequeña aldea, se encuentra con una piedra preciosa en medio del bosque a donde ha ido a cazar, poco se espera que ese suceso vaya a cambiar su vida y el destino de Alagaësia. Lo único que desea es venderla para así asegurar la subsistencia de su familia durante el duro invierno. Sin embargo, una noche la gema se rompe y lo que sale de ella lo llevará a un viaje que lo convertirá en héroe. ¿Podrá Eragon tomar la responsabilidad de los legendarios jinetes de dragones? La esperanza del Imperio descansa en sus manos…

Disponible Solo Para VIP!!!

Ficha técnica

Video trailer de la película

Enlaces de descarga

Rip de Bluray

Descargar Eragon (2006) REMUX 1080p Latino


Aportes de DPeliculasHDmega la pass es:dpeliculashdmega.org Aportes de CinemaniaHD la pass es:cinemaniahdd.com
Guardado en : Acción , Aventura , Familia , Fantasía , Remux

Películas relacionadas

  • The Expendables (2010) [Open Matte] WEB-DL 1080p Latino

    The Expendables (2010) [Open Matte] WEB-DL 1080p Latino

    2010
    The Expendables (2010) [Open Matte] WEB-DL 1080p Latino

    1h 43m 2010

    Un grupo de mercenarios es contratado para infiltrarse en un país sudamericano y derrocar a su despiadado...

    Director: Sylvester Stallone

    Género: Acción

    Actores: Victor Eli Hugo

  • Carter (2022) NF WEB-DL 1080p Latino

    Carter (2022) NF WEB-DL 1080p Latino

    2022
    Carter (2022) NF WEB-DL 1080p Latino

    2h 12m 2022

    Representa la impresionante persecución del agente 'Carter', introducido en una operación misteriosa...

    Director: Jung Byung-gil

    Género: Acción

    Actores: Lee Sung-jae

  • Prey (2022) 4K-HDR WEB-DL 2160p Latino

    Prey (2022) 4K-HDR WEB-DL 2160p Latino

    2022
    Prey (2022) 4K-HDR WEB-DL 2160p Latino

    1h 40m 2022

    Ambientada hace 300 años en la Nación Comanche. Naru es una joven guerrera, feroz y altamente hábil,...

    Director: Richard Cowan

    Género: 4K HDR

    Actores: Tyson Carter

Eragon (2006) REMUX 1080p Latino pelicula full hd, Eragon (2006) REMUX 1080p Latino mega latino, Eragon (2006) REMUX 1080p Latino 4k latino, Eragon (2006) REMUX 1080p Latino pelicula completa, Eragon (2006) REMUX 1080p Latino descargar gratis, descargar Eragon (2006) REMUX 1080p Latino pelicula latino, Eragon (2006) REMUX 1080p Latino 1 link mega, Eragon (2006) REMUX 1080p Latino 1 link google drive, Eragon (2006) REMUX 1080p Latino hd 1080p latino.
Comentarios 0