×

¿Problemas para descargar con Mozilla, EDGE? Deshabilita la opción "Abrir vinculos en una pestaña nueva" tal como lo muestra ésta imagen.

Epidemia (2020) Primera Temporada WEB-DL 1080p Latino

275 vistas

Información de Epidemia (2020) Primera Temporada WEB-DL 1080p Latino

Datos de la película

  • Calidad: WEBDL
  • Audio: Se especifica abajo de la Sinopsis
  • Subtitulos: Español Latino SRT- FORZADOS SRT
  • Resolución: 1920x1080
  • Formato: MKV
  • Codec: H.265
  • Encoder: cinemaniahdd
  • Mediainfo: Clic para Mostrar Datos Ver
  • Epidemia T01E01 WEB-DL 1080p Latino [CNMNHDD].mkv
    Format                      : Matroska
    Format version              : Version 4
    File size                   : 1 019 MiB
    Duration                    : 41 min 20 s
    Overall bit rate            : 3 446 kb/s
    Movie name                  : Epidemia T01E01 - CinemaniaHDD.Net
    Encoded date                : UTC 2021-05-18 01:48:22
    Writing application         : mkvmerge v56.1.0 ('My Friend') 64-bit
    Writing library             : libebml v1.4.2 + libmatroska v1.6.4

    Video
    ID                          : 1
    Format                      : AVC
    Format/Info                 : Advanced Video Codec
    Format profile              : High@L5
    Format settings             : CABAC / 5 Ref Frames
    Format settings, CABAC      : Yes
    Format settings, Reference  : 5 frames
    Codec ID                    : V_MPEG4/ISO/AVC
    Duration                    : 41 min 20 s
    Bit rate                    : 3 191 kb/s
    Width                       : 1 920 pixels
    Height                      : 1 080 pixels
    Display aspect ratio        : 16:9
    Frame rate mode             : Constant
    Frame rate                  : 29.970 (30000/1001) FPS
    Color space                 : YUV
    Chroma subsampling          : 4:2:0
    Bit depth                   : 8 bits
    Scan type                   : Progressive
    Bits/(Pixel*Frame)          : 0.051
    Stream size                 : 944 MiB (93%)
    Title                       : CinemaniaHDD
    Language                    : Spanish
    Default                     : Yes
    Forced                      : No

    Audio #1
    ID                          : 2
    Format                      : AAC LC
    Format/Info                 : Advanced Audio Codec Low Complexity
    Codec ID                    : A_AAC-2
    Duration                    : 41 min 20 s
    Bit rate                    : 125 kb/s
    Channel(s)                  : 2 channels
    Channel layout              : L R
    Sampling rate               : 48.0 kHz
    Frame rate                  : 46.875 FPS (1024 SPF)
    Compression mode            : Lossy
    Stream size                 : 37.1 MiB (4%)
    Title                       : Español latino [CinemaniaHDD]
    Language                    : Spanish
    Default                     : Yes
    Forced                      : No

    Audio #2
    ID                          : 3
    Format                      : AAC LC
    Format/Info                 : Advanced Audio Codec Low Complexity
    Codec ID                    : A_AAC-2
    Duration                    : 41 min 20 s
    Bit rate                    : 125 kb/s
    Channel(s)                  : 2 channels
    Channel layout              : L R
    Sampling rate               : 48.0 kHz
    Frame rate                  : 46.875 FPS (1024 SPF)
    Compression mode            : Lossy
    Stream size                 : 37.1 MiB (4%)
    Title                       : Francés [CinemaniaHDD]
    Language                    : French
    Default                     : No
    Forced                      : No

    Text #1
    ID                          : 4
    Format                      : UTF-8
    Codec ID                    : S_TEXT/UTF8
    Codec ID/Info               : UTF-8 Plain Text
    Duration                    : 11 min 14 s
    Bit rate                    : 1 b/s
    Count of elements           : 3
    Stream size                 : 85.0 Bytes (0%)
    Title                       : Forzados [CinemaniaHDD]
    Language                    : Spanish
    Default                     : Yes
    Forced                      : Yes

    Text #2
    ID                          : 5
    Format                      : UTF-8
    Codec ID                    : S_TEXT/UTF8
    Codec ID/Info               : UTF-8 Plain Text
    Duration                    : 40 min 40 s
    Bit rate                    : 54 b/s
    Count of elements           : 518
    Stream size                 : 16.2 KiB (0%)
    Title                       : Español latino [CinemaniaHDD]
    Language                    : Spanish
    Default                     : No
    Forced                      : No

     

  • Peso: 999 MiB Aprox ---- 8 GiB in 8 Chapters.

Sinopsis

Un virus peligroso comienza a manifestarse en un grupo de indigentes en Montreal. ¿Cuánto le tomará a Anne-Marie Leclerc, directora del Laboratorio de Emergencia de Salud Pública, descubrir la existencia de esta enfermedad extremadamente contagiosa? ¿Llegará muy tarde para prevenir la epidemia de una enfermedad mortal en el resto de la población?

Español Latino 2.0 WEB-DL – Frances 2.0 WEB-DL

Ficha técnica

  • Titulo original: Épidémie
  • Fecha de lanzamiento: 07-01-2020 (CA)
  • Género: Drama, Series

Video trailer de la película

Enlaces de descarga

Rip de Bluray

Descargar Epidemia (2020) Primera Temporada WEB-DL 1080p Latino




Aportes de DPeliculasHDmega la pass es:dpeliculashdmega.org Aportes de CinemaniaHD la pass es:cinemaniahdd.com
Guardado en : Drama , Series

Películas relacionadas

descargar Epidemia (2020) Primera Temporada WEB-DL 1080p Latino WEBDL 1080p gratis, Epidemia (2020) Primera Temporada WEB-DL 1080p Latino WEBDL mega 1 link, Epidemia (2020) Primera Temporada WEB-DL 1080p Latino WEBDL serie completa, descargar Epidemia (2020) Primera Temporada WEB-DL 1080p Latino WEBDL gratis en mega.

Epidemia (2020) Primera Temporada WEB-DL 1080p Latino pelicula full hd, Epidemia (2020) Primera Temporada WEB-DL 1080p Latino mega latino, Epidemia (2020) Primera Temporada WEB-DL 1080p Latino 4k latino, Epidemia (2020) Primera Temporada WEB-DL 1080p Latino pelicula completa, Epidemia (2020) Primera Temporada WEB-DL 1080p Latino descargar gratis, descargar Epidemia (2020) Primera Temporada WEB-DL 1080p Latino pelicula latino, Epidemia (2020) Primera Temporada WEB-DL 1080p Latino 1 link mega, Epidemia (2020) Primera Temporada WEB-DL 1080p Latino 1 link google drive, Epidemia (2020) Primera Temporada WEB-DL 1080p Latino hd 1080p latino.
Comentarios 0