×

¿Problemas para descargar con Mozilla, EDGE? Deshabilita la opción "Abrir vinculos en una pestaña nueva" tal como lo muestra ésta imagen.

Entrevista con el vampiro (2022) Temporada 01 REMUX 1080p Latino

117 vistas

Información de Entrevista con el vampiro (2022) Temporada 01 REMUX 1080p Latino

Datos de la película

  • Calidad: Full 1080p
  • Audio: Se especifica abajo de la Sinopsis
  • Subtitulos: Español Latino PGS - Ingles PGS
  • Resolución: 1920x1080p
  • Formato: MKV
  • Codec: H.264
  • Encoder: Melkor
  • Mediainfo: Clic para Mostrar Datos Ver
  • Interview With The Vampire S01E01 (2022) REMUX 1080p Latino.mkv
    Format                      : Matroska
    Format version              : Version 4
    File size                   : 12.6 GiB
    Duration                    : 1 h 6 min
    Overall bit rate mode       : Variable
    Overall bit rate            : 27.1 Mb/s
    Movie name                  : Interview With The Vampire S01E01 - In Throes of Increasing Wonder CinemaniaHDD.Net
    Encoded date                : UTC 2023-10-07 04:39:42
    Writing application         : mkvmerge v56.1.0 ('My Friend') 64-bit
    Writing library             : libebml v1.4.2 + libmatroska v1.6.4
    Cover                       : Yes
    Attachments                 : cover.jpg / CINEMANIAHD.png
    Site                        : CinemaniaHDD.Net
    Uploader                    : Melkor

    Video
    ID                          : 1
    Format                      : AVC
    Format/Info                 : Advanced Video Codec
    Format profile              : High@L4.1
    Format settings             : CABAC / 4 Ref Frames
    Format settings, CABAC      : Yes
    Format settings, Reference  : 4 frames
    Codec ID                    : V_MPEG4/ISO/AVC
    Duration                    : 1 h 6 min
    Bit rate mode               : Variable
    Bit rate                    : 19.8 Mb/s
    Maximum bit rate            : 29.0 Mb/s
    Width                       : 1 920 pixels
    Height                      : 1 080 pixels
    Display aspect ratio        : 16:9
    Frame rate mode             : Constant
    Frame rate                  : 23.976 (24000/1001) FPS
    Color space                 : YUV
    Chroma subsampling          : 4:2:0
    Bit depth                   : 8 bits
    Scan type                   : Progressive
    Bits/(Pixel*Frame)          : 0.398
    Stream size                 : 9.17 GiB (73%)
    Title                       : REMUX HD1080p [CinemaniaHDD]
    Default                     : Yes
    Forced                      : Yes

    Audio #1
    ID                          : 2
    ID in the original source m : 4354 (0x1102)
    Format                      : DTS XLL
    Format/Info                 : Digital Theater Systems
    Commercial name             : DTS-HD Master Audio
    Codec ID                    : A_DTS
    Duration                    : 1 h 6 min
    Bit rate mode               : Variable
    Bit rate                    : 3 675 kb/s
    Channel(s)                  : 6 channels
    Channel layout              : C L R Ls Rs LFE
    Sampling rate               : 48.0 kHz
    Frame rate                  : 93.750 FPS (512 SPF)
    Bit depth                   : 24 bits
    Compression mode            : Lossless
    Stream size                 : 1.70 GiB (14%)
    Title                       : Español Latino [CinemaniaHDD]
    Language                    : Spanish
    Default                     : Yes
    Forced                      : Yes
    Original source medium      : Blu-ray

    Audio #2
    ID                          : 3
    ID in the original source m : 4352 (0x1100)
    Format                      : DTS XLL
    Format/Info                 : Digital Theater Systems
    Commercial name             : DTS-HD Master Audio
    Codec ID                    : A_DTS
    Duration                    : 1 h 6 min
    Bit rate mode               : Variable
    Bit rate                    : 3 614 kb/s
    Channel(s)                  : 6 channels
    Channel layout              : C L R Ls Rs LFE
    Sampling rate               : 48.0 kHz
    Frame rate                  : 93.750 FPS (512 SPF)
    Bit depth                   : 24 bits
    Compression mode            : Lossless
    Stream size                 : 1.67 GiB (13%)
    Title                       : Ingles [CinemaniaHDD]
    Language                    : English
    Default                     : No
    Forced                      : No
    Original source medium      : Blu-ray

    Text #1
    ID                          : 4
    ID in the original source m : 4612 (0x1204)
    Format                      : PGS
    Muxing mode                 : zlib
    Codec ID                    : S_HDMV/PGS
    Codec ID/Info               : Picture based subtitle format used on BDs/HD-DVDs
    Duration                    : 52 min 19 s
    Bit rate                    : 752 b/s
    Count of elements           : 38
    Stream size                 : 288 KiB (0%)
    Title                       : Forzados-PGS [CinemaniaHDD]
    Language                    : Spanish
    Default                     : No
    Forced                      : No
    Original source medium      : Blu-ray

    Text #2
    ID                          : 5
    ID in the original source m : 4610 (0x1202)
    Format                      : PGS
    Muxing mode                 : zlib
    Codec ID                    : S_HDMV/PGS
    Codec ID/Info               : Picture based subtitle format used on BDs/HD-DVDs
    Duration                    : 1 h 4 min
    Bit rate                    : 32.4 kb/s
    Count of elements           : 1972
    Stream size                 : 15.0 MiB (0%)
    Title                       : Español-PGS [CinemaniaHDD]
    Language                    : Spanish
    Default                     : No
    Forced                      : No
    Original source medium      : Blu-ray

    Text #3
    ID                          : 6
    ID in the original source m : 4608 (0x1200)
    Format                      : PGS
    Muxing mode                 : zlib
    Codec ID                    : S_HDMV/PGS
    Codec ID/Info               : Picture based subtitle format used on BDs/HD-DVDs
    Duration                    : 1 h 6 min
    Bit rate                    : 33.5 kb/s
    Count of elements           : 2622
    Stream size                 : 15.8 MiB (0%)
    Title                       : Ingles-PGS [CinemaniaHDD]
    Language                    : English
    Default                     : No
    Forced                      : No
    Original source medium      : Blu-ray

    Text #4
    ID                          : 7
    Format                      : UTF-8
    Codec ID                    : S_TEXT/UTF8
    Codec ID/Info               : UTF-8 Plain Text
    Duration                    : 52 min 19 s
    Bit rate                    : 1 b/s
    Count of elements           : 19
    Stream size                 : 642 Bytes (0%)
    Title                       : Forzados-SRT [CinemaniaHDD]
    Language                    : Spanish
    Default                     : Yes
    Forced                      : Yes

    Text #5
    ID                          : 8
    Format                      : UTF-8
    Codec ID                    : S_TEXT/UTF8
    Codec ID/Info               : UTF-8 Plain Text
    Duration                    : 1 h 4 min
    Bit rate                    : 79 b/s
    Count of elements           : 986
    Stream size                 : 37.6 KiB (0%)
    Title                       : Español-SRT [CinemaniaHDD]
    Language                    : Spanish
    Default                     : No
    Forced                      : No

    Menu
    00:00:00.000                : Chapter 01
    00:12:56.525                : Chapter 02
    00:28:08.937                : Chapter 03
    00:43:13.048                : Chapter 04
    00:55:19.524                : Chapter 05
    01:04:58.603                : Chapter 06

  • Peso: 9.5 GiB Aprox C/U -- 66.4 GiB -- 7 Chapters

Sinopsis

Descargar Entrevista con el vampiro (2022) Temporada 01 REMUX 1080p Latino. La épica historia de amor, sangre y los peligros de la inmortalidad de Louis de Pointe, contada al periodista Daniel Molloy. Irritado por las limitaciones de la vida como un hombre negro en la Nueva Orleans de 1900, a Louis le resulta imposible resistirse a la oferta del libertino Lestat De Lioncourt del último escape: unirse a él como su compañero vampiro.

Español Latino – Ingles [DTS-HD MA 5.1 BD]

Ficha técnica

  • Titulo original: Interview with the Vampire
  • Fecha de lanzamiento: 02-10-2022 (US)
  • Director: Rolin Jones
  • Género: Drama, Remux, Series

Video trailer de la película

Enlaces de descarga

Rip de Bluray

Descargar Entrevista con el vampiro (2022) Temporada 01 REMUX 1080p Latino


Aportes de DPeliculasHDmega la pass es:dpeliculashdmega.org Aportes de CinemaniaHD la pass es:cinemaniahdd.com Aportes recientes:cinemaniahdd.net
Guardado en : Drama , Remux , Series

Películas relacionadas

descargar Entrevista con el vampiro (2022) Temporada 01 REMUX 1080p Latino Full 1080p 1080p gratis, Entrevista con el vampiro (2022) Temporada 01 REMUX 1080p Latino Full 1080p mega 1 link, Entrevista con el vampiro (2022) Temporada 01 REMUX 1080p Latino Full 1080p serie completa, descargar Entrevista con el vampiro (2022) Temporada 01 REMUX 1080p Latino Full 1080p gratis en mega.

Entrevista con el vampiro (2022) Temporada 01 REMUX 1080p Latino pelicula full hd, Entrevista con el vampiro (2022) Temporada 01 REMUX 1080p Latino mega latino, Entrevista con el vampiro (2022) Temporada 01 REMUX 1080p Latino 4k latino, Entrevista con el vampiro (2022) Temporada 01 REMUX 1080p Latino pelicula completa, Entrevista con el vampiro (2022) Temporada 01 REMUX 1080p Latino descargar gratis, descargar Entrevista con el vampiro (2022) Temporada 01 REMUX 1080p Latino pelicula latino, Entrevista con el vampiro (2022) Temporada 01 REMUX 1080p Latino 1 link mega, Entrevista con el vampiro (2022) Temporada 01 REMUX 1080p Latino 1 link google drive, Entrevista con el vampiro (2022) Temporada 01 REMUX 1080p Latino hd 1080p latino.
Comentarios 0