×

¿Problemas para descargar con Mozilla, EDGE? Deshabilita la opción "Abrir vinculos en una pestaña nueva" tal como lo muestra ésta imagen.

Enemy of The State (1998) REMUX 1080p Latino

672 vistas

Información de Enemy of The State (1998) REMUX 1080p Latino

Datos de la película

  • Calidad: Full 1080p
  • Audio: Español Latino AC3 5.1 BLURAY - Ingles DTS 5.1 BLURAY
  • Subtitulos: Español Latino PGS - Ingles PGS
  • Resolución: 1920x1080
  • Formato: MKV
  • Codec: H.264
  • Encoder: cinemaniahdd
  • Mediainfo: Clic para Mostrar Datos Ver
  • Enemy of The State (1998) REMUX 1080p Latino.mkv
    Format                      : Matroska
    Format version              : Version 4
    File size                   : 21.0 GiB
    Duration                    : 2 h 12 min
    Overall bit rate mode       : Variable
    Overall bit rate            : 22.7 Mb/s
    Movie name                  : Enemy of The State (1998) - CinemaniaHDD.Net
    Encoded date                : UTC 2020-04-20 03:52:44
    Writing application         : mkvmerge v42.0.0 ('Overtime') 64-bit
    Writing library             : libebml v1.3.10 + libmatroska v1.5.2

    Video
    ID                          : 1
    Format                      : MPEG Video
    Format version              : Version 2
    Format profile              : Main@High
    Format settings             : BVOP
    Format settings, BVOP       : Yes
    Format settings, Matrix     : Default
    Format settings, GOP        : M=3, N=15
    Codec ID                    : V_MPEG2
    Codec ID/Info               : MPEG 1 or 2 Video
    Duration                    : 2 h 12 min
    Bit rate mode               : Variable
    Bit rate                    : 19.6 Mb/s
    Maximum bit rate            : 37.0 Mb/s
    Width                       : 1 920 pixels
    Height                      : 1 080 pixels
    Display aspect ratio        : 16:9
    Frame rate mode             : Constant
    Frame rate                  : 23.976 (24000/1001) FPS
    Color space                 : YUV
    Chroma subsampling          : 4:2:0
    Bit depth                   : 8 bits
    Scan type                   : Progressive
    Compression mode            : Lossy
    Bits/(Pixel*Frame)          : 0.394
    Time code of first frame    : 00:00:00:00
    Time code source            : Group of pictures header
    GOP, Open/Closed            : Open
    GOP, Open/Closed of first f : Closed
    Stream size                 : 18.1 GiB (86%)
    Title                       : CinemaniaHDD
    Language                    : English
    Default                     : Yes
    Forced                      : No

    Audio #1
    ID                          : 2
    Format                      : AC-3
    Format/Info                 : Audio Coding 3
    Commercial name             : Dolby Digital
    Codec ID                    : A_AC3
    Duration                    : 2 h 12 min
    Bit rate mode               : Constant
    Bit rate                    : 640 kb/s
    Channel(s)                  : 6 channels
    Channel layout              : L R C LFE Ls Rs
    Sampling rate               : 48.0 kHz
    Frame rate                  : 31.250 FPS (1536 SPF)
    Bit depth                   : 16 bits
    Compression mode            : Lossy
    Stream size                 : 605 MiB (3%)
    Title                       : Español latino [CinemaniaHDD]
    Language                    : Spanish
    Service kind                : Complete Main
    Default                     : Yes
    Forced                      : No

    Audio #2
    ID                          : 3
    Format                      : DTS XLL
    Format/Info                 : Digital Theater Systems
    Commercial name             : DTS-HD Master Audio
    Codec ID                    : A_DTS
    Duration                    : 2 h 12 min
    Bit rate mode               : Variable
    Bit rate                    : 2 435 kb/s
    Channel(s)                  : 6 channels
    Channel layout              : C L R Ls Rs LFE
    Sampling rate               : 48.0 kHz
    Frame rate                  : 93.750 FPS (512 SPF)
    Bit depth                   : 16 bits
    Compression mode            : Lossless
    Stream size                 : 2.25 GiB (11%)
    Title                       : Inglés [CinemaniaHDD]
    Language                    : English
    Default                     : No
    Forced                      : No

    Text #1
    ID                          : 4
    Format                      : PGS
    Muxing mode                 : zlib
    Codec ID                    : S_HDMV/PGS
    Codec ID/Info               : Picture based subtitle format used on BDs/HD-DVDs
    Duration                    : 2 h 5 min
    Bit rate                    : 736 b/s
    Count of elements           : 75
    Stream size                 : 678 KiB (0%)
    Title                       : Forzados [CinemaniaHDD]
    Language                    : Spanish
    Default                     : Yes
    Forced                      : Yes

    Text #2
    ID                          : 5
    Format                      : PGS
    Muxing mode                 : zlib
    Codec ID                    : S_HDMV/PGS
    Codec ID/Info               : Picture based subtitle format used on BDs/HD-DVDs
    Duration                    : 2 h 6 min
    Bit rate                    : 34.5 kb/s
    Count of elements           : 3532
    Stream size                 : 31.1 MiB (0%)
    Title                       : Español latino [CinemaniaHDD]
    Language                    : Spanish
    Default                     : No
    Forced                      : No

    Text #3
    ID                          : 6
    Format                      : PGS
    Muxing mode                 : zlib
    Codec ID                    : S_HDMV/PGS
    Codec ID/Info               : Picture based subtitle format used on BDs/HD-DVDs
    Duration                    : 2 h 5 min
    Bit rate                    : 43.9 kb/s
    Count of elements           : 3815
    Stream size                 : 39.5 MiB (0%)
    Title                       : Inglés [CinemaniaHDD]
    Language                    : English
    Default                     : No
    Forced                      : No

    Menu
    00:00:00.000                : en:Program Start
    00:00:48.217                : en:Eliminating Opposition
    00:04:26.403                : en:Opening Credits
    00:06:20.017                : en:Taking On the Mob
    00:09:59.469                : en:A Visit with Pintero
    00:14:15.994                : en:A Problem at the Lake
    00:18:18.071                : en:Zavitz's Tape
    00:22:11.172                : en:Rabbit on the Run
    00:31:26.362                : en:Dean's Profile
    00:35:38.113                : en:Unexpected Visitors
    00:38:22.111                : en:Getting into Dean's Life
    00:44:01.951                : en:Dean's Life in Shambles
    00:51:21.525                : en:Conversation with Rachel
    00:56:12.716                : en:A Rough Cab Ride
    00:59:06.591                : en:Brill
    01:03:56.514                : en:Moving Target
    01:09:19.003                : en:Tunnel Vision
    01:13:39.598                : en:Winning Carla Over
    01:20:33.879                : en:The Setup
    01:27:34.199                : en:The Jar
    01:33:11.937                : en:Time Bomb
    01:39:01.955                : en:Edward Lyle
    01:41:59.799                : en:Turning the Tables
    01:49:02.060                : en:A Call from Brill
    01:50:24.677                : en:"Let the Games Begin"
    01:54:11.571                : en:Getting the Tape Back
    01:55:45.299                : en:Dean's Plan
    02:03:54.689                : en:Wrap-Up
    02:06:44.525                : en:End Credits
    02:12:08.183                : en:Program End

     

  • Peso: 21.0 GiB

Sinopsis

La vida de Robert Clayton Dean va a cambiar. Una casualidad pondrá en peligro su feliz hogar y su brillante carrera como abogado cuando hasta sus manos llega una cinta de video con las imágenes del asesinato de un miembro del Congreso de los Estados Unidos, en la que aparecen involucrados agentes del gobierno.

Ficha técnica

Video trailer de la película

Enlaces de descarga

Rip de Bluray

Descargar Enemy of The State (1998) REMUX 1080p Latino




Aportes de DPeliculasHDmega la pass es:dpeliculashdmega.org Aportes de CinemaniaHD la pass es:cinemaniahdd.com
Guardado en : Acción , Drama , Remux , Suspenso

Películas relacionadas

  • El Ultimo Juego (2021) WEB-DL 1080p Latino

    El Ultimo Juego (2021) WEB-DL 1080p Latino

    2021
    El Ultimo Juego (2021) WEB-DL 1080p Latino

    1h 21m 2021

    Descargar El Ultimo Juego (2021) WEB-DL 1080p Latino. 6 extraños se despiertan dentro de una habitación...

    Director: John David Moffat IV

    Género: Drama

    Actores: Yasmin Irvine

  • DC Liga De Supermascotas (2022) HD 1080p Latino

    DC Liga De Supermascotas (2022) HD 1080p Latino

    2022
    DC Liga De Supermascotas (2022) HD 1080p Latino

    1h 45m 2022

    Descargar DC Liga De Supermascotas (2022) HD 1080p Latino. Krypto el Superperro y Superman son amigos...

    Director: Sam Levine

    Género: Acción

    Actores: Yvette Nicole Brown

  • Invitacion Al Infierno (2022) MA WEB-DL 1080p Latino

    Invitacion Al Infierno (2022) MA WEB-DL 1080p Latino

    2022
    Invitacion Al Infierno (2022) MA WEB-DL 1080p Latino

    1h 45m 2022

    Descargar Invitacion Al Infierno (2022) MA WEB-DL 1080p Latino. Tras la muerte de su madre y quedarse...

    Director: Jessica M. Thompson

    Género: Suspenso

    Actores: Virág Bárány

descargar Enemy of The State (1998) REMUX 1080p Latino Full 1080p 1080p gratis, Enemy of The State (1998) REMUX 1080p Latino Full 1080p mega 1 link, Enemy of The State (1998) REMUX 1080p Latino Full 1080p pelicula completa, descargar Enemy of The State (1998) REMUX 1080p Latino Full 1080p gratis en mega.

Enemy of The State (1998) REMUX 1080p Latino pelicula full hd, Enemy of The State (1998) REMUX 1080p Latino mega latino, Enemy of The State (1998) REMUX 1080p Latino 4k latino, Enemy of The State (1998) REMUX 1080p Latino pelicula completa, Enemy of The State (1998) REMUX 1080p Latino descargar gratis, descargar Enemy of The State (1998) REMUX 1080p Latino pelicula latino, Enemy of The State (1998) REMUX 1080p Latino 1 link mega, Enemy of The State (1998) REMUX 1080p Latino 1 link google drive, Enemy of The State (1998) REMUX 1080p Latino hd 1080p latino.
Comentarios 0