×

¿Problemas para descargar con Mozilla, EDGE? Deshabilita la opción "Abrir vinculos en una pestaña nueva" tal como lo muestra ésta imagen.

Avengers: Endgame (2019) 4K-SDR WEB-DL 2160p Latino

5.190 vistas

Información de Avengers: Endgame (2019) 4K-SDR WEB-DL 2160p Latino

SDR

Datos de la película

  • Calidad: 4K UHD
  • Audio: Se especifica abajo de la Sinopsis
  • Subtitulos: Español Latino SRT- FORZADOS SRT
  • Resolución: 3840x2160p
  • Formato: MKV
  • Codec: H.264
  • Encoder: DEFLATE
  • Mediainfo: Clic para Mostrar Datos Ver
  • Avengers Endgame (2019) 4K-SDR WEB-DL 2160p Latino.mkv
    Format                      : Matroska
    Format version              : Version 4
    File size                   : 32.6 GiB
    Duration                    : 3 h 1 min
    Overall bit rate            : 25.7 Mb/s
    Movie name                  : Avengers Endgame (2019) 4K-SDR WEB-DL 2160p Latino
    Encoded date                : UTC 2019-07-31 02:11:35
    Writing application         : mkvmerge v35.0.0 ('All The Love In The World') 64-bit
    Writing library             : libebml v1.3.9 + libmatroska v1.5.2

    Video
    ID                          : 1
    Format                      : HEVC
    Format/Info                 : High Efficiency Video Coding
    Format profile              : Main 10@L5@High
    Codec ID                    : V_MPEGH/ISO/HEVC
    Duration                    : 3 h 1 min
    Bit rate                    : 24.8 Mb/s
    Width                       : 3 840 pixels
    Height                      : 1 608 pixels
    Original height             : 2 160 pixels
    Display aspect ratio        : 16:9
    Frame rate mode             : Constant
    Frame rate                  : 23.976 (24000/1001) FPS
    Color space                 : YUV
    Chroma subsampling          : 4:2:0 (Type 2)
    Bit depth                   : 10 bits
    Bits/(Pixel*Frame)          : 0.167
    Stream size                 : 31.3 GiB (96%)
    Title                       : CinemaniaHDD
    Language                    : English
    Default                     : Yes
    Forced                      : No
    Color range                 : Limited
    Color primaries             : BT.709
    Transfer characteristics    : BT.709
    Matrix coefficients         : BT.709

    Audio #1
    ID                          : 2
    Format                      : AC-3
    Format/Info                 : Audio Coding 3
    Commercial name             : Dolby Digital
    Codec ID                    : A_AC3
    Duration                    : 3 h 1 min
    Bit rate mode               : Constant
    Bit rate                    : 384 kb/s
    Channel(s)                  : 6 channels
    Channel layout              : L R C LFE Ls Rs
    Sampling rate               : 48.0 kHz
    Frame rate                  : 31.250 FPS (1536 SPF)
    Bit depth                   : 16 bits
    Compression mode            : Lossy
    Delay relative to video     : 105 ms
    Stream size                 : 498 MiB (1%)
    Title                       : Español latino [CinemaniaHDD]
    Language                    : Spanish
    Service kind                : Complete Main
    Default                     : Yes
    Forced                      : No

    Audio #2
    ID                          : 3
    Format                      : E-AC-3 JOC
    Format/Info                 : Enhanced AC-3 with Joint Object Coding
    Commercial name             : Dolby Digital Plus with Dolby Atmos
    Codec ID                    : A_EAC3
    Duration                    : 3 h 1 min
    Bit rate mode               : Constant
    Bit rate                    : 640 kb/s
    Channel(s)                  : 6 channels
    Channel layout              : L R C LFE Ls Rs
    Sampling rate               : 48.0 kHz
    Frame rate                  : 31.250 FPS (1536 SPF)
    Compression mode            : Lossy
    Stream size                 : 832 MiB (2%)
    Title                       : Inglés [CinemaniaHDD]
    Language                    : English
    Service kind                : Complete Main
    Default                     : No
    Forced                      : No
    Complexity index            : 16
    Number of dynamic objects   : 15
    Bed channel count           : 1 channel
    Bed channel configuration   : LFE

    Text #1
    ID                          : 4
    Format                      : UTF-8
    Codec ID                    : S_TEXT/UTF8
    Codec ID/Info               : UTF-8 Plain Text
    Duration                    : 2 h 31 min
    Bit rate                    : 1 b/s
    Count of elements           : 48
    Stream size                 : 1.32 KiB (0%)
    Title                       : Forzados [CinemaniaHDD]
    Language                    : Spanish
    Default                     : Yes
    Forced                      : Yes

    Text #2
    ID                          : 5
    Format                      : UTF-8
    Codec ID                    : S_TEXT/UTF8
    Codec ID/Info               : UTF-8 Plain Text
    Duration                    : 2 h 47 min
    Bit rate                    : 48 b/s
    Count of elements           : 2197
    Stream size                 : 59.9 KiB (0%)
    Title                       : Español latino [CinemaniaHDD]
    Language                    : Spanish
    Default                     : No
    Forced                      : No

    Menu
    00:00:00.000                : en:One Last Surprise
    00:08:03.000                : en:"To The Garden"
    00:19:58.000                : en:Five Years Later
    00:26:12.000                : en:"A Time Heist"
    00:36:53.000                : en:"Time Travel Do-Over"
    00:43:16.000                : en:"I Fixed It"
    00:48:39.000                : en:Assembling The Avengers
    00:57:31.000                : en:"Get The Stones, Get Them Back"
    01:07:06.000                : en:Rogue Transmission
    01:15:56.000                : en:New York, 2012
    01:26:18.000                : en:Asgard, 2013
    01:32:12.000                : en:Morag, 2014
    01:38:48.000                : en:New Jersey, 1970
    01:48:04.000                : en:Vormir, 2014
    01:57:18.000                : en:"I Was Made For This"
    02:04:51.000                : en:Thanos' Return
    02:14:56.000                : en:Avengers Assemble
    02:25:40.000                : en:One Of The 14,000,605
    02:34:26.000                : en:"Part Of The Journey Is The End"
    02:42:52.000                : en:"Clip All The Branches"
    02:48:53.000                : en:End Credits

  • Peso: 32.6 GiB

Sinopsis

Descargar Avengers: Endgame (2019) 4K-SDR WEB-DL 2160p Latino. Después de los eventos devastadores de ‘Vengadores: Infinity War’, el universo está en ruinas debido a las acciones de Thanos. Con la ayuda de los aliados que quedaron, los Vengadores deberán reunirse una vez más para intentar deshacer sus acciones y restaurar el orden en el universo de una vez por todas, sin importar cuáles sean las consecuencias… Cuarta y última entrega de la saga «Vengadores».

Audio Español Latino AC3 5.1 Itunes – Ingles E-AC3 5.1 Itunes

Ficha técnica

Video trailer de la película

Enlaces de descarga

Rip de Bluray

Descargar Avengers: Endgame (2019) 4K-SDR WEB-DL 2160p Latino




Aportes de DPeliculasHDmega la pass es:dpeliculashdmega.org Aportes de CinemaniaHD la pass es:cinemaniahdd.com

Películas relacionadas

descargar Avengers: Endgame (2019) 4K-SDR WEB-DL 2160p Latino 4K UHD 1080p gratis, Avengers: Endgame (2019) 4K-SDR WEB-DL 2160p Latino 4K UHD mega 1 link, Avengers: Endgame (2019) 4K-SDR WEB-DL 2160p Latino 4K UHD pelicula completa, descargar Avengers: Endgame (2019) 4K-SDR WEB-DL 2160p Latino 4K UHD gratis en mega.

Avengers: Endgame (2019) 4K-SDR WEB-DL 2160p Latino pelicula full hd, Avengers: Endgame (2019) 4K-SDR WEB-DL 2160p Latino mega latino, Avengers: Endgame (2019) 4K-SDR WEB-DL 2160p Latino 4k latino, Avengers: Endgame (2019) 4K-SDR WEB-DL 2160p Latino pelicula completa, Avengers: Endgame (2019) 4K-SDR WEB-DL 2160p Latino descargar gratis, descargar Avengers: Endgame (2019) 4K-SDR WEB-DL 2160p Latino pelicula latino, Avengers: Endgame (2019) 4K-SDR WEB-DL 2160p Latino 1 link mega, Avengers: Endgame (2019) 4K-SDR WEB-DL 2160p Latino 1 link google drive, Avengers: Endgame (2019) 4K-SDR WEB-DL 2160p Latino hd 1080p latino.
Comentarios 0