×

¿Problemas para descargar con Mozilla, EDGE? Deshabilita la opción "Abrir vinculos en una pestaña nueva" tal como lo muestra ésta imagen.

Ender’s Game (2013) REMUX 1080p Latino – CMHDD

705 vistas

Información de Ender’s Game (2013) REMUX 1080p Latino – CMHDD

Datos de la película

  • Calidad: Full 1080p
  • Audio: Español Latino AC3 5.1 BLURAY - Ingles DTS-HD Master 7.1 BLURAY
  • Subtitulos: Español Latino PGS
  • Resolución: 1920x1080p
  • Formato: MKV
  • Codec: H.264
  • Encoder: Dracarys
  • Mediainfo: Clic para Mostrar Datos Ver
  • Format                      : Matroska
    Format version              : Version 4
    File size                   : 31.2 GiB
    Duration                    : 1 h 53 min
    Overall bit rate mode       : Variable
    Overall bit rate            : 39.3 Mb/s
    Movie name                  : Ender's Game (2013) REMUX 1080p Latino - CMHDD
    Encoded date                : UTC 2022-03-17 00:05:27
    Writing application         : mkvmerge v17.0.0 ('Be Ur Friend') 64-bit
    Writing library             : libebml v1.3.5 + libmatroska v1.4.8

    Video
    ID                          : 1
    Format                      : AVC
    Format/Info                 : Advanced Video Codec
    Format profile              : High@L4.1
    Format settings             : CABAC / 4 Ref Frames
    Format settings, CABAC      : Yes
    Format settings, Reference  : 4 frames
    Codec ID                    : V_MPEG4/ISO/AVC
    Duration                    : 1 h 53 min
    Bit rate mode               : Variable
    Bit rate                    : 33.7 Mb/s
    Maximum bit rate            : 37.0 Mb/s
    Width                       : 1 920 pixels
    Height                      : 1 080 pixels
    Display aspect ratio        : 16:9
    Frame rate mode             : Constant
    Frame rate                  : 23.976 (23976/1000) FPS
    Original frame rate         : 23.976 (24000/1001) FPS
    Color space                 : YUV
    Chroma subsampling          : 4:2:0
    Bit depth                   : 8 bits
    Scan type                   : Progressive
    Bits/(Pixel*Frame)          : 0.677
    Stream size                 : 26.8 GiB (86%)
    Default                     : Yes
    Forced                      : No

    Audio #1
    ID                          : 2
    Format                      : DTS XLL
    Format/Info                 : Digital Theater Systems
    Commercial name             : DTS-HD Master Audio
    Codec ID                    : A_DTS
    Duration                    : 1 h 53 min
    Bit rate mode               : Variable
    Bit rate                    : 4 984 kb/s
    Channel(s)                  : 8 channels
    Channel layout              : C L R LFE Lb Rb Lss Rss
    Sampling rate               : 48.0 kHz
    Frame rate                  : 93.750 FPS (512 SPF)
    Bit depth                   : 24 bits
    Compression mode            : Lossless
    Stream size                 : 3.96 GiB (13%)
    Language                    : English
    Default                     : No
    Forced                      : No

    Audio #2
    ID                          : 3
    Format                      : AC-3
    Format/Info                 : Audio Coding 3
    Commercial name             : Dolby Digital
    Codec ID                    : A_AC3
    Duration                    : 1 h 53 min
    Bit rate mode               : Constant
    Bit rate                    : 640 kb/s
    Channel(s)                  : 6 channels
    Channel layout              : L R C LFE Ls Rs
    Sampling rate               : 48.0 kHz
    Frame rate                  : 31.250 FPS (1536 SPF)
    Compression mode            : Lossy
    Stream size                 : 521 MiB (2%)
    Language                    : Spanish
    Service kind                : Complete Main
    Default                     : Yes
    Forced                      : No

    Text
    ID                          : 4
    Format                      : PGS
    Muxing mode                 : zlib
    Codec ID                    : S_HDMV/PGS
    Codec ID/Info               : Picture based subtitle format used on BDs/HD-DVDs
    Duration                    : 1 h 44 min
    Bit rate                    : 35.2 kb/s
    Count of elements           : 2740
    Stream size                 : 26.4 MiB (0%)
    Language                    : Spanish
    Default                     : No
    Forced                      : No

    Menu
    00:00:00.000                : en:Chapter 1
    00:06:10.578                : en:Chapter 2
    00:14:18.566                : en:Chapter 3
    00:19:06.144                : en:Chapter 4
    00:28:07.143                : en:Chapter 5
    00:34:30.818                : en:Chapter 6
    00:39:34.663                : en:Chapter 7
    00:45:43.407                : en:Chapter 8
    00:53:37.714                : en:Chapter 9
    01:02:15.606                : en:Chapter 10
    01:09:21.949                : en:Chapter 11
    01:15:16.887                : en:Chapter 12
    01:23:38.304                : en:Chapter 13
    01:30:54.824                : en:Chapter 14
    01:35:43.279                : en:Chapter 15
    01:41:12.858                : en:Chapter 16

  • Peso: 31.2 GiB

Sinopsis

En un futuro cercano, una raza alienígena llamada Insectores ha atacado la Tierra. De no ser por un héroe legendario, el comandante de la Flota Internacional, Mazer Rackham, todo se habría perdido. Preparándose para el próximo ataque, el estricto coronel Hyrum Graff y el Ejército Internacional entrenan sólo a los mejores jóvenes para encontrar al futuro Mazer. Entre estos jóvenes está Ender Wiggin, un chico tímido pero brillante estratega, reclutado para unirse a la élite en la Escuela de Batalla. Se acerca una épica batalla que determinará el futuro de la Tierra y la salvación de la raza humana.

Ficha técnica

Video trailer de la película

Enlaces de descarga

Rip de Bluray

Descargar Ender’s Game (2013) REMUX 1080p Latino – CMHDD


Aportes de DPeliculasHDmega la pass es:dpeliculashdmega.org Aportes de CinemaniaHD la pass es:cinemaniahdd.com
Guardado en : Acción , Aventura , Ciencia ficción

Películas relacionadas

  • El Lobo Y El Leon (2021) HD 1080p Latino

    El Lobo Y El Leon (2021) HD 1080p Latino

    2021
    El Lobo Y El Leon (2021) HD 1080p Latino

    1h 39m 2021

    Descargar El Lobo Y El Leon (2021) HD 1080p Latino. A la muerte de su abuelo, Alma, un joven pianista...

    Director: Gilles de Maistre

    Género: Aventura

    Actores: Victor Cornfoot

  • El Lobo Y El Leon (2021) PLACEBO Full HD 1080p Latino

    El Lobo Y El Leon (2021) PLACEBO Full HD 1080p Latino

    2021
    El Lobo Y El Leon (2021) PLACEBO Full HD 1080p Latino

    1h 39m 2021

    Descargar El Lobo Y El Leon (2021) PLACEBO Full HD 1080p Latino. A la muerte de su abuelo, Alma, un joven...

    Director: Gilles de Maistre

    Género: Aventura

    Actores: Victor Cornfoot

  • El Lobo Y El Leon (2021) REMUX 1080p Latino

    El Lobo Y El Leon (2021) REMUX 1080p Latino

    2021
    El Lobo Y El Leon (2021) REMUX 1080p Latino

    1h 39m 2021

    Descargar El Lobo Y El Leon (2021) REMUX 1080p Latino. A la muerte de su abuelo, Alma, un joven pianista...

    Director: Gilles de Maistre

    Género: Aventura

    Actores: Victor Cornfoot

  • La Mujer Rey (2022) WEB-DL 1080p Latino

    La Mujer Rey (2022) WEB-DL 1080p Latino

    2022
    La Mujer Rey (2022) WEB-DL 1080p Latino

    2h 15m 2022

    Descargar La Mujer Rey (2022) WEB-DL 1080p Latino. Una epopeya histórica inspirada en los hechos reales...

    Director: Gina Prince-Bythewood

    Género: Acción

    Actores: Wanda Banda

  • Black Adam (2022) WEB-DL 4K UHD HDR Latino

    Black Adam (2022) WEB-DL 4K UHD HDR Latino

    2022
    Black Adam (2022) WEB-DL 4K UHD HDR Latino

    2h 4m 2022

    Descargar Black Adam (2022) WEB-DL 4K UHD HDR Latino. Casi 5.000 años después de haber sido dotado...

    Director: Jaume Collet-Serra

    Género: 4K HDR

    Actores: Yssa Mei Panganiban

descargar Ender’s Game (2013) REMUX 1080p Latino – CMHDD Full 1080p 1080p gratis, Ender’s Game (2013) REMUX 1080p Latino – CMHDD Full 1080p mega 1 link, Ender’s Game (2013) REMUX 1080p Latino – CMHDD Full 1080p pelicula completa, descargar Ender’s Game (2013) REMUX 1080p Latino – CMHDD Full 1080p gratis en mega.

Ender’s Game (2013) REMUX 1080p Latino – CMHDD pelicula full hd, Ender’s Game (2013) REMUX 1080p Latino – CMHDD mega latino, Ender’s Game (2013) REMUX 1080p Latino – CMHDD 4k latino, Ender’s Game (2013) REMUX 1080p Latino – CMHDD pelicula completa, Ender’s Game (2013) REMUX 1080p Latino – CMHDD descargar gratis, descargar Ender’s Game (2013) REMUX 1080p Latino – CMHDD pelicula latino, Ender’s Game (2013) REMUX 1080p Latino – CMHDD 1 link mega, Ender’s Game (2013) REMUX 1080p Latino – CMHDD 1 link google drive, Ender’s Game (2013) REMUX 1080p Latino – CMHDD hd 1080p latino.
Comentarios 0