×

¿Problemas para descargar con Mozilla, EDGE? Deshabilita la opción "Abrir vinculos en una pestaña nueva" tal como lo muestra ésta imagen.

Encounter (2021) AMZN WEB-DL 1080p Latino

135 vistas

Información de Encounter (2021) AMZN WEB-DL 1080p Latino

Datos de la película

  • Calidad: 1080p
  • Audio: Español Latino AC3 5.1 WEB-DL - Ingles AC3 5.1 WEB-DL
  • Subtitulos: Español Latino SRT- FORZADOS SRT
  • Resolución: 1920x1080
  • Formato: MKV
  • Codec: H.264
  • Encoder: cinemaniahdd
  • Mediainfo: Clic para Mostrar Datos Ver
  • Encounter (2021) AMZN WEB-DL 1080p Latino [CNMNHDD].mkv
    Format                      : Matroska
    Format version              : Version 4
    File size                   : 6.71 GiB
    Duration                    : 1 h 48 min
    Overall bit rate            : 8 827 kb/s
    Movie name                  : Encounter (2021) - CinemaniaHDD.Net
    Encoded date                : UTC 2021-12-10 01:40:25
    Writing application         : mkvmerge v56.1.0 ('My Friend') 64-bit
    Writing library             : libebml v1.4.2 + libmatroska v1.6.4

    Video
    ID                          : 1
    Format                      : AVC
    Format/Info                 : Advanced Video Codec
    Format profile              : High@L4
    Format settings             : CABAC / 4 Ref Frames
    Format settings, CABAC      : Yes
    Format settings, Reference  : 4 frames
    Codec ID                    : V_MPEG4/ISO/AVC
    Duration                    : 1 h 48 min
    Bit rate mode               : Constant
    Bit rate                    : 6 905 kb/s
    Nominal bit rate            : 10 000 kb/s
    Width                       : 1 920 pixels
    Height                      : 800 pixels
    Display aspect ratio        : 2.40:1
    Frame rate mode             : Constant
    Frame rate                  : 24.000 FPS
    Color space                 : YUV
    Chroma subsampling          : 4:2:0
    Bit depth                   : 8 bits
    Scan type                   : Progressive
    Bits/(Pixel*Frame)          : 0.187
    Stream size                 : 5.24 GiB (78%)
    Title                       : CinemaniaHDD
    Default                     : Yes
    Forced                      : No
    Color range                 : Limited
    Color primaries             : BT.709
    Transfer characteristics    : BT.709
    Matrix coefficients         : BT.709

    Audio #1
    ID                          : 2
    Format                      : AC-3
    Format/Info                 : Audio Coding 3
    Commercial name             : Dolby Digital
    Codec ID                    : A_AC3
    Duration                    : 1 h 48 min
    Bit rate mode               : Constant
    Bit rate                    : 640 kb/s
    Channel(s)                  : 6 channels
    Channel layout              : L R C LFE Ls Rs
    Sampling rate               : 48.0 kHz
    Frame rate                  : 31.250 FPS (1536 SPF)
    Compression mode            : Lossy
    Stream size                 : 498 MiB (7%)
    Title                       : Español latino [CinemaniaHDD]
    Language                    : Spanish
    Service kind                : Complete Main
    Default                     : Yes
    Forced                      : No

    Audio #2
    ID                          : 3
    Format                      : E-AC-3
    Format/Info                 : Enhanced AC-3
    Commercial name             : Dolby Digital Plus
    Codec ID                    : A_EAC3
    Duration                    : 1 h 48 min
    Bit rate mode               : Constant
    Bit rate                    : 640 kb/s
    Channel(s)                  : 6 channels
    Channel layout              : L R C LFE Ls Rs
    Sampling rate               : 48.0 kHz
    Frame rate                  : 31.250 FPS (1536 SPF)
    Compression mode            : Lossy
    Stream size                 : 498 MiB (7%)
    Title                       : Español latino / E-AC3 [CinemaniaHDD]
    Language                    : Spanish
    Service kind                : Complete Main
    Default                     : No
    Forced                      : No

    Audio #3
    ID                          : 4
    Format                      : E-AC-3
    Format/Info                 : Enhanced AC-3
    Commercial name             : Dolby Digital Plus
    Codec ID                    : A_EAC3
    Duration                    : 1 h 48 min
    Bit rate mode               : Constant
    Bit rate                    : 640 kb/s
    Channel(s)                  : 6 channels
    Channel layout              : L R C LFE Ls Rs
    Sampling rate               : 48.0 kHz
    Frame rate                  : 31.250 FPS (1536 SPF)
    Compression mode            : Lossy
    Stream size                 : 498 MiB (7%)
    Title                       : Inglés [CinemaniaHDD]
    Language                    : English
    Service kind                : Complete Main
    Default                     : No
    Forced                      : No

    Text #1
    ID                          : 5
    Format                      : UTF-8
    Codec ID                    : S_TEXT/UTF8
    Codec ID/Info               : UTF-8 Plain Text
    Duration                    : 1 h 12 min
    Bit rate                    : 0 b/s
    Count of elements           : 12
    Stream size                 : 371 Bytes (0%)
    Title                       : Forzados [CinemaniaHDD]
    Language                    : Spanish
    Default                     : Yes
    Forced                      : Yes

    Text #2
    ID                          : 6
    Format                      : UTF-8
    Codec ID                    : S_TEXT/UTF8
    Codec ID/Info               : UTF-8 Plain Text
    Duration                    : 1 h 43 min
    Bit rate                    : 44 b/s
    Count of elements           : 1166
    Stream size                 : 33.7 KiB (0%)
    Title                       : Español latino [CinemaniaHDD]
    Language                    : Spanish
    Default                     : No
    Forced                      : No

    Text #3
    ID                          : 7
    Format                      : UTF-8
    Codec ID                    : S_TEXT/UTF8
    Codec ID/Info               : UTF-8 Plain Text
    Duration                    : 1 h 46 min
    Bit rate                    : 61 b/s
    Count of elements           : 1778
    Stream size                 : 47.8 KiB (0%)
    Title                       : Inglés [CinemaniaHDD]
    Language                    : English
    Default                     : No
    Forced                      : No

    Menu
    00:00:00.000                : :Amazon Studios
    00:00:21.000                : :Studio Logo
    00:03:20.000                : :Title Sequence
    00:03:31.000                : :Scene 4
    00:07:58.000                : :Scene 5
    00:09:33.000                : :Scene 6
    00:17:01.000                : :Scene 7
    00:25:31.000                : :Scene 8
    00:34:43.000                : :Scene 9
    00:38:24.000                : :Scene 10
    00:44:02.000                : :Scene 11
    00:48:01.000                : :Scene 12
    00:51:11.000                : :Scene 13
    00:54:09.000                : :Scene 14
    00:54:49.000                : :Scene 15
    00:56:53.000                : :Scene 16
    01:07:48.000                : :Scene 17
    01:10:36.000                : :Scene 18
    01:18:20.000                : :Scene 19
    01:18:59.000                : :Scene 20
    01:28:16.000                : :Scene 21
    01:35:24.000                : :Scene 22
    01:42:51.000                : :End Credits

     

  • Peso: 6.71 GiB

Sinopsis

Un marine condecorado acude a rescatar a sus dos hijos de una amenaza desconocida. A medida que su viaje se adentra en terrenos peligrosos, los niños tendrán que madurar a marchas forzadas.

Ficha técnica

Video trailer de la película

Enlaces de descarga

Rip de Bluray

Descargar Encounter (2021) AMZN WEB-DL 1080p Latino




Aportes de DPeliculasHDmega la pass es:dpeliculashdmega.org Aportes de CinemaniaHD la pass es:cinemaniahdd.com

Películas relacionadas

descargar Encounter (2021) AMZN WEB-DL 1080p Latino 1080p 1080p gratis, Encounter (2021) AMZN WEB-DL 1080p Latino 1080p mega 1 link, Encounter (2021) AMZN WEB-DL 1080p Latino 1080p pelicula completa, descargar Encounter (2021) AMZN WEB-DL 1080p Latino 1080p gratis en mega.

Encounter (2021) AMZN WEB-DL 1080p Latino pelicula full hd, Encounter (2021) AMZN WEB-DL 1080p Latino mega latino, Encounter (2021) AMZN WEB-DL 1080p Latino 4k latino, Encounter (2021) AMZN WEB-DL 1080p Latino pelicula completa, Encounter (2021) AMZN WEB-DL 1080p Latino descargar gratis, descargar Encounter (2021) AMZN WEB-DL 1080p Latino pelicula latino, Encounter (2021) AMZN WEB-DL 1080p Latino 1 link mega, Encounter (2021) AMZN WEB-DL 1080p Latino 1 link google drive, Encounter (2021) AMZN WEB-DL 1080p Latino hd 1080p latino.
Comentarios 0