×

¿Problemas para descargar con Mozilla, EDGE? Deshabilita la opción "Abrir vinculos en una pestaña nueva" tal como lo muestra ésta imagen.

Encantada (2007) 1080p Latino

310 vistas

Información de Encantada (2007) 1080p Latino

Datos de la película

  • Calidad: 1080p
  • Audio: Español Latino AC3 5.1 WEB-DL - Ingles AC3 5.1 BLURAY
  • Subtitulos: Español Latino SRT - Ingles SRT
  • Resolución: 1920x818p
  • Formato: MKV
  • Codec: H.264
  • Encoder: CinefiloCool
  • Mediainfo: Clic para Mostrar Datos Ver
  • Encantada (2007) 1080p Latino-CMHDD.mkv
    Format                      : Matroska
    Format version              : Version 4
    File size                   : 4.16 GiB
    Duration                    : 1 h 47 min
    Overall bit rate            : 5 538 kb/s
    Movie name                  : Enchanted (2007) CinemaniaHDD.Net
    Encoded date                : UTC 2022-01-11 04:55:43
    Writing application         : mkvmerge v56.1.0 ('My Friend') 64-bit
    Writing library             : libebml v1.4.2 + libmatroska v1.6.4
    Attachments                 : CINEMANIAHD.png

    Video
    ID                          : 1
    Format                      : AVC
    Format/Info                 : Advanced Video Codec
    Format profile              : High@L4.1
    Format settings             : CABAC / 5 Ref Frames
    Format settings, CABAC      : Yes
    Format settings, Reference  : 5 frames
    Codec ID                    : V_MPEG4/ISO/AVC
    Duration                    : 1 h 47 min
    Bit rate                    : 4 640 kb/s
    Width                       : 1 920 pixels
    Height                      : 818 pixels
    Display aspect ratio        : 2.35:1
    Frame rate mode             : Constant
    Frame rate                  : 23.976 (24000/1001) FPS
    Color space                 : YUV
    Chroma subsampling          : 4:2:0
    Bit depth                   : 8 bits
    Scan type                   : Progressive
    Bits/(Pixel*Frame)          : 0.123
    Stream size                 : 3.48 GiB (84%)
    Title                       : HD1080p [CinemaniaHDD]
    Writing library             : x264 core 163 r3059 b684ebe0
    Encoding settings           : cabac=1 / ref=5 / deblock=1:-1:-1 / analyse=0x3:0x133 / me=umh / subme=9 / psy=1 / psy_rd=1.00:0.15 / mixed_ref=1 / me_range=16 / chroma_me=1 / trellis=2 / 8x8dct=1 / cqm=0 / deadzone=21,11 / fast_pskip=1 / chroma_qp_offset=-3 / threads=24 / lookahead_threads=2 / sliced_threads=0 / nr=0 / decimate=1 / interlaced=0 / bluray_compat=0 / constrained_intra=0 / bframes=3 / b_pyramid=2 / b_adapt=2 / b_bias=0 / direct=3 / weightb=1 / open_gop=0 / weightp=2 / keyint=240 / keyint_min=24 / scenecut=40 / intra_refresh=0 / rc_lookahead=60 / rc=crf / mbtree=1 / crf=22.5 / qcomp=0.60 / qpmin=0 / qpmax=69 / qpstep=4 / vbv_maxrate=62500 / vbv_bufsize=78125 / crf_max=0.0 / nal_hrd=none / filler=0 / ip_ratio=1.40 / aq=1:1.00
    Default                     : Yes
    Forced                      : Yes
    Color range                 : Limited
    Color primaries             : BT.709
    Transfer characteristics    : BT.709
    Matrix coefficients         : BT.709

    Audio #1
    ID                          : 2
    Format                      : AC-3
    Format/Info                 : Audio Coding 3
    Commercial name             : Dolby Digital
    Codec ID                    : A_AC3
    Duration                    : 1 h 47 min
    Bit rate mode               : Constant
    Bit rate                    : 448 kb/s
    Channel(s)                  : 6 channels
    Channel layout              : L R C LFE Ls Rs
    Sampling rate               : 48.0 kHz
    Frame rate                  : 31.250 FPS (1536 SPF)
    Compression mode            : Lossy
    Delay relative to video     : -5 ms
    Stream size                 : 344 MiB (8%)
    Title                       : Español Latino [CinemaniaHDD]
    Language                    : Spanish
    Service kind                : Complete Main
    Default                     : Yes
    Forced                      : Yes

    Audio #2
    ID                          : 3
    Format                      : AC-3
    Format/Info                 : Audio Coding 3
    Commercial name             : Dolby Digital
    Codec ID                    : A_AC3
    Duration                    : 1 h 47 min
    Bit rate mode               : Constant
    Bit rate                    : 448 kb/s
    Channel(s)                  : 6 channels
    Channel layout              : L R C LFE Ls Rs
    Sampling rate               : 48.0 kHz
    Frame rate                  : 31.250 FPS (1536 SPF)
    Compression mode            : Lossy
    Delay relative to video     : -5 ms
    Stream size                 : 344 MiB (8%)
    Title                       : Ingles [CinemaniaHDD]
    Language                    : English
    Service kind                : Complete Main
    Default                     : No
    Forced                      : No

    Text #1
    ID                          : 4
    Format                      : UTF-8
    Codec ID                    : S_TEXT/UTF8
    Codec ID/Info               : UTF-8 Plain Text
    Duration                    : 1 h 27 min
    Bit rate                    : 0 b/s
    Count of elements           : 16
    Stream size                 : 353 Bytes (0%)
    Title                       : Forzados-SRT [CinemaniaHDD]
    Language                    : Spanish
    Default                     : Yes
    Forced                      : Yes

    Text #2
    ID                          : 5
    Format                      : UTF-8
    Codec ID                    : S_TEXT/UTF8
    Codec ID/Info               : UTF-8 Plain Text
    Duration                    : 1 h 38 min
    Bit rate                    : 63 b/s
    Count of elements           : 1389
    Stream size                 : 45.6 KiB (0%)
    Title                       : Español-SRT [CinemaniaHDD]
    Language                    : Spanish
    Default                     : No
    Forced                      : No

    Text #3
    ID                          : 6
    Format                      : UTF-8
    Codec ID                    : S_TEXT/UTF8
    Codec ID/Info               : UTF-8 Plain Text
    Duration                    : 1 h 38 min
    Bit rate                    : 63 b/s
    Count of elements           : 1370
    Stream size                 : 45.4 KiB (0%)
    Title                       : Ingles-SRT [CinemaniaHDD]
    Language                    : English
    Default                     : No
    Forced                      : No

    Menu
    00:00:00.000                : Chapter 01
    00:04:16.297                : Chapter 02
    00:08:01.814                : Chapter 03
    00:13:04.867                : Chapter 04
    00:17:36.430                : Chapter 05
    00:23:25.403                : Chapter 06
    00:28:21.699                : Chapter 07
    00:34:03.291                : Chapter 08
    00:40:17.706                : Chapter 09
    00:45:24.096                : Chapter 10
    00:52:36.027                : Chapter 11
    00:57:06.381                : Chapter 12
    01:07:40.055                : Chapter 13
    01:12:46.111                : Chapter 14
    01:16:53.817                : Chapter 15
    01:20:23.401                : Chapter 16
    01:24:06.165                : Chapter 17
    01:26:43.364                : Chapter 18
    01:32:31.212                : Chapter 19
    01:39:05.898                : Chapter 20

  • Peso: 4.16 GiB

Sinopsis

Descargar Encantada (2007) 1080p Latino. Narra la odisea que debe vivir la bella princesa Giselle (Amy Adams), que es transportada por un hechizo de la malvada reina Narissa (Susan Sarandon) desde su mágico mundo a la moderna y caótica Manhattan actual. Inmersa en un entorno en el que «fueron felices y comieron perdices» no funciona, Giselle deambula por un mundo caótico que necesita urgentemente unos cuantos hechizos. Pero Giselle se enamora de un abogado divorciado, encantador pero nada perfecto (Patrick Dempsey) que decide ayudarla. A pesar de que en su mundo está prometida al príncipe de cuento de hadas (James Marsden), la joven princesa se hará la siguiente pregunta: ¿Su visión del amor ideal tiene futuro en el mundo real?

Ficha técnica

Video trailer de la película

Enlaces de descarga

Rip de Bluray

Descargar Encantada (2007) 1080p Latino




Aportes de DPeliculasHDmega la pass es:dpeliculashdmega.org Aportes de CinemaniaHD la pass es:cinemaniahdd.com
Guardado en : Comedia , Familia , Fantasía , HD 1080p , Romance

Películas relacionadas

descargar Encantada (2007) 1080p Latino 1080p 1080p gratis, Encantada (2007) 1080p Latino 1080p mega 1 link, Encantada (2007) 1080p Latino 1080p pelicula completa, descargar Encantada (2007) 1080p Latino 1080p gratis en mega.

Encantada (2007) 1080p Latino pelicula full hd, Encantada (2007) 1080p Latino mega latino, Encantada (2007) 1080p Latino 4k latino, Encantada (2007) 1080p Latino pelicula completa, Encantada (2007) 1080p Latino descargar gratis, descargar Encantada (2007) 1080p Latino pelicula latino, Encantada (2007) 1080p Latino 1 link mega, Encantada (2007) 1080p Latino 1 link google drive, Encantada (2007) 1080p Latino hd 1080p latino.
Comentarios 0