×

¿Problemas para descargar con Mozilla, EDGE? Deshabilita la opción "Abrir vinculos en una pestaña nueva" tal como lo muestra ésta imagen.

Encanto (2021) REMUX 4K HDR Latino – CMHDD

271 vistas

Información de Encanto (2021) REMUX 4K HDR Latino – CMHDD

Datos de la película

  • Calidad: 4K HDR
  • Audio: Se especifica abajo de la Sinopsis
  • Subtitulos: Español Latino PGS
  • Resolución: 3840x2160p
  • Formato: MKV
  • Codec: H.264
  • Encoder: Dracarys
  • Mediainfo: Clic para Mostrar Datos Ver
  • Format                      : Matroska
    Format version              : Version 4
    File size                   : 51.7 GiB
    Duration                    : 1 h 42 min
    Overall bit rate mode       : Variable
    Overall bit rate            : 72.5 Mb/s
    Movie name                  : Encanto (2021) REMUX 4K HDR Latino - CMHDD
    Encoded date                : UTC 2022-03-30 14:41:31
    Writing application         : mkvmerge v17.0.0 ('Be Ur Friend') 64-bit
    Writing library             : libebml v1.3.5 + libmatroska v1.4.8

    Video
    ID                          : 1
    Format                      : HEVC
    Format/Info                 : High Efficiency Video Coding
    Format profile              : Main 10@L5.1@High
    HDR format                  : SMPTE ST 2086, HDR10 compatible
    Codec ID                    : V_MPEGH/ISO/HEVC
    Duration                    : 1 h 42 min
    Bit rate                    : 65.8 Mb/s
    Width                       : 3 840 pixels
    Height                      : 2 160 pixels
    Display aspect ratio        : 16:9
    Frame rate mode             : Constant
    Frame rate                  : 23.976 (24000/1001) FPS
    Color space                 : YUV
    Chroma subsampling          : 4:2:0 (Type 2)
    Bit depth                   : 10 bits
    Bits/(Pixel*Frame)          : 0.331
    Stream size                 : 47.0 GiB (91%)
    Writing library             : ATEME Titan File 3.9.6 (4.9.6.2)        
    Default                     : Yes
    Forced                      : No
    Color range                 : Limited
    Color primaries             : BT.2020
    Transfer characteristics    : PQ
    Matrix coefficients         : BT.2020 non-constant
    Mastering display color pri : Display P3
    Mastering display luminance : min: 0.0050 cd/m2, max: 1000 cd/m2

    Audio #1
    ID                          : 2
    Format                      : MLP FBA 16-ch
    Format/Info                 : Meridian Lossless Packing FBA with 16-channel presentation
    Commercial name             : Dolby TrueHD with Dolby Atmos
    Codec ID                    : A_TRUEHD
    Duration                    : 1 h 42 min
    Bit rate mode               : Variable
    Bit rate                    : 4 876 kb/s
    Maximum bit rate            : 7 050 kb/s
    Channel(s)                  : 8 channels
    Channel layout              : L R C LFE Ls Rs Lb Rb
    Sampling rate               : 48.0 kHz
    Frame rate                  : 1 200.000 FPS (40 SPF)
    Compression mode            : Lossless
    Delay relative to video     : 32 ms
    Stream size                 : 3.48 GiB (7%)
    Language                    : English
    Default                     : No
    Forced                      : No
    Number of dynamic objects   : 13
    Bed channel count           : 1 channel
    Bed channel configuration   : LFE

    Audio #2
    ID                          : 3
    Format                      : AC-3
    Format/Info                 : Audio Coding 3
    Commercial name             : Dolby Digital
    Codec ID                    : A_AC3
    Duration                    : 1 h 42 min
    Bit rate mode               : Constant
    Bit rate                    : 640 kb/s
    Channel(s)                  : 6 channels
    Channel layout              : L R C LFE Ls Rs
    Sampling rate               : 48.0 kHz
    Frame rate                  : 31.250 FPS (1536 SPF)
    Compression mode            : Lossy
    Delay relative to video     : 31 ms
    Stream size                 : 467 MiB (1%)
    Language                    : English
    Service kind                : Complete Main
    Default                     : No
    Forced                      : No

    Audio #3
    ID                          : 4
    Format                      : E-AC-3
    Format/Info                 : Enhanced AC-3
    Commercial name             : Dolby Digital Plus
    Format profile              : Blu-ray Disc
    Codec ID                    : A_EAC3
    Duration                    : 1 h 42 min
    Bit rate mode               : Constant
    Bit rate                    : 1 024 kb/s
    Channel(s)                  : 6 channels
    Channel(s)_Original         : 8 channels
    ChannelLayout_Original      : L R C LFE Ls Rs Lrs Rrs
    Sampling rate               : 48.0 kHz
    Frame rate                  : 31.250 FPS (1536 SPF)
    Compression mode            : Lossy
    Stream size                 : 748 MiB (1%)
    Language                    : Spanish
    Service kind                : Complete Main
    Default                     : Yes
    Forced                      : No

    Text
    ID                          : 5
    Format                      : PGS
    Muxing mode                 : zlib
    Codec ID                    : S_HDMV/PGS
    Codec ID/Info               : Picture based subtitle format used on BDs/HD-DVDs
    Duration                    : 1 h 30 min
    Bit rate                    : 37.8 kb/s
    Count of elements           : 2420
    Stream size                 : 24.4 MiB (0%)
    Language                    : Spanish
    Default                     : No
    Forced                      : No

    Menu
    00:00:00.000                : en:Chapter 1
    00:03:57.654                : en:Chapter 2
    00:09:49.297                : en:Chapter 3
    00:15:07.573                : en:Chapter 4
    00:16:54.888                : en:Chapter 5
    00:21:48.807                : en:Chapter 6
    00:24:54.910                : en:Chapter 7
    00:28:58.611                : en:Chapter 8
    00:31:10.618                : en:Chapter 9
    00:38:35.104                : en:Chapter 10
    00:44:57.820                : en:Chapter 11
    00:53:39.966                : en:Chapter 12
    01:01:22.345                : en:Chapter 13
    01:06:28.067                : en:Chapter 14
    01:11:41.255                : en:Chapter 15
    01:16:38.135                : en:Chapter 16
    01:24:25.393                : en:Chapter 17
    01:31:02.206                : en:Chapter 18

  • Peso: 51.7 GiB

Sinopsis

Los Madrigal son una familia extraordinaria que vive en una casa mágica de un pueblo vibrante en las montañas de Colombia, escondidas en un ‘Encanto’. La magia ha bendecido a cada niño de la familia con un don único, desde la superfuerza hasta el poder de sanar. A todos, excepto Mirabel, quien desea ser tan especial como el resto de su familia. Pero cuando la magia que rodea al Encanto está en peligro, Mirabel decide que ella, la única Madrigal sin ningún tipo de don único, puede ser la única esperanza de su excepcional familia.

 

Latino: E-AC3 7.1  –  Inglés: TrueHD 7.1

Ficha técnica

Video trailer de la película

Enlaces de descarga

Rip de Bluray

Descargar Encanto (2021) REMUX 4K HDR Latino – CMHDD


Aportes de DPeliculasHDmega la pass es:dpeliculashdmega.org Aportes de CinemaniaHD la pass es:cinemaniahdd.com
Guardado en : Animación , Comedia , Familia , Fantasía

Películas relacionadas

descargar Encanto (2021) REMUX 4K HDR Latino – CMHDD 4K HDR 1080p gratis, Encanto (2021) REMUX 4K HDR Latino – CMHDD 4K HDR mega 1 link, Encanto (2021) REMUX 4K HDR Latino – CMHDD 4K HDR pelicula completa, descargar Encanto (2021) REMUX 4K HDR Latino – CMHDD 4K HDR gratis en mega.

Encanto (2021) REMUX 4K HDR Latino – CMHDD pelicula full hd, Encanto (2021) REMUX 4K HDR Latino – CMHDD mega latino, Encanto (2021) REMUX 4K HDR Latino – CMHDD 4k latino, Encanto (2021) REMUX 4K HDR Latino – CMHDD pelicula completa, Encanto (2021) REMUX 4K HDR Latino – CMHDD descargar gratis, descargar Encanto (2021) REMUX 4K HDR Latino – CMHDD pelicula latino, Encanto (2021) REMUX 4K HDR Latino – CMHDD 1 link mega, Encanto (2021) REMUX 4K HDR Latino – CMHDD 1 link google drive, Encanto (2021) REMUX 4K HDR Latino – CMHDD hd 1080p latino.
Comentarios 0