×

¿Problemas para descargar con Mozilla, EDGE? Deshabilita la opción "Abrir vinculos en una pestaña nueva" tal como lo muestra ésta imagen.

Encanto (2021) HD 1080p Latino

949 vistas

Información de Encanto (2021) HD 1080p Latino

Datos de la película

  • Calidad: 1080p
  • Audio: Español Latino AC3 5.1 BLURAY - Ingles AC3 5.1 BLURAY
  • Subtitulos: Español Latino SRT- FORZADOS SRT
  • Resolución: 1920x1036p
  • Formato: MKV
  • Codec: H.264
  • Encoder: Melkor
  • Mediainfo: Clic para Mostrar Datos Ver
  • Encanto (2021) HD 1080p Latino.mkv
    Format                      : Matroska
    Format version              : Version 4
    File size                   : 3.25 GiB
    Duration                    : 1 h 42 min
    Overall bit rate            : 4 552 kb/s
    Movie name                  : Encanto (2021) CinemaniaHDD.Net
    Encoded date                : UTC 2022-01-19 08:48:31
    Writing application         : mkvmerge v56.1.0 ('My Friend') 64-bit
    Writing library             : libebml v1.4.2 + libmatroska v1.6.4
    Attachments                 : CINEMANIAHD.png

    Video
    ID                          : 1
    Format                      : AVC
    Format/Info                 : Advanced Video Codec
    Format profile              : High@L4.1
    Format settings             : CABAC / 4 Ref Frames
    Format settings, CABAC      : Yes
    Format settings, Reference  : 4 frames
    Codec ID                    : V_MPEG4/ISO/AVC
    Duration                    : 1 h 42 min
    Bit rate                    : 3 589 kb/s
    Width                       : 1 920 pixels
    Height                      : 1 036 pixels
    Display aspect ratio        : 1.85:1
    Frame rate mode             : Constant
    Frame rate                  : 23.976 (24000/1001) FPS
    Color space                 : YUV
    Chroma subsampling          : 4:2:0
    Bit depth                   : 8 bits
    Scan type                   : Progressive
    Bits/(Pixel*Frame)          : 0.075
    Stream size                 : 2.56 GiB (79%)
    Title                       : HD1080p [CinemaniaHDD]
    Writing library             : x264 core 163 r3059 b684ebe0
    Encoding settings           : cabac=1 / ref=4 / deblock=1:1:1 / analyse=0x3:0x133 / me=umh / subme=9 / psy=1 / psy_rd=0.40:0.00 / mixed_ref=1 / me_range=16 / chroma_me=1 / trellis=2 / 8x8dct=1 / cqm=0 / deadzone=21,11 / fast_pskip=1 / chroma_qp_offset=-2 / threads=24 / lookahead_threads=2 / sliced_threads=0 / nr=0 / decimate=1 / interlaced=0 / bluray_compat=0 / constrained_intra=0 / bframes=5 / b_pyramid=2 / b_adapt=2 / b_bias=0 / direct=3 / weightb=1 / open_gop=0 / weightp=2 / keyint=240 / keyint_min=24 / scenecut=40 / intra_refresh=0 / rc_lookahead=60 / rc=crf / mbtree=1 / crf=21.0 / qcomp=0.60 / qpmin=0 / qpmax=69 / qpstep=4 / vbv_maxrate=62500 / vbv_bufsize=78125 / crf_max=0.0 / nal_hrd=none / filler=0 / ip_ratio=1.40 / aq=1:0.60
    Default                     : Yes
    Forced                      : Yes
    Color range                 : Limited
    Color primaries             : BT.709
    Transfer characteristics    : BT.709
    Matrix coefficients         : BT.709

    Audio #1
    ID                          : 2
    Format                      : AC-3
    Format/Info                 : Audio Coding 3
    Commercial name             : Dolby Digital
    Codec ID                    : A_AC3
    Duration                    : 1 h 42 min
    Bit rate mode               : Constant
    Bit rate                    : 512 kb/s
    Channel(s)                  : 6 channels
    Channel layout              : L R C LFE Ls Rs
    Sampling rate               : 48.0 kHz
    Frame rate                  : 31.250 FPS (1536 SPF)
    Compression mode            : Lossy
    Delay relative to video     : -5 ms
    Stream size                 : 374 MiB (11%)
    Title                       : Español Latino [CinemaniaHDD]
    Language                    : Spanish
    Service kind                : Complete Main
    Default                     : Yes
    Forced                      : Yes

    Audio #2
    ID                          : 3
    Format                      : AC-3
    Format/Info                 : Audio Coding 3
    Commercial name             : Dolby Digital
    Codec ID                    : A_AC3
    Duration                    : 1 h 42 min
    Bit rate mode               : Constant
    Bit rate                    : 448 kb/s
    Channel(s)                  : 6 channels
    Channel layout              : L R C LFE Ls Rs
    Sampling rate               : 48.0 kHz
    Frame rate                  : 31.250 FPS (1536 SPF)
    Compression mode            : Lossy
    Delay relative to video     : -5 ms
    Stream size                 : 327 MiB (10%)
    Title                       : Ingles [CinemaniaHDD]
    Language                    : English
    Service kind                : Complete Main
    Default                     : No
    Forced                      : No

    Text #1
    ID                          : 4
    Format                      : UTF-8
    Codec ID                    : S_TEXT/UTF8
    Codec ID/Info               : UTF-8 Plain Text
    Duration                    : 2 s 2 ms
    Bit rate                    : 135 b/s
    Count of elements           : 1
    Stream size                 : 34.0 Bytes (0%)
    Title                       : Forzados-SRT [CinemaniaHDD]
    Language                    : Spanish
    Default                     : Yes
    Forced                      : Yes

    Text #2
    ID                          : 5
    Format                      : UTF-8
    Codec ID                    : S_TEXT/UTF8
    Codec ID/Info               : UTF-8 Plain Text
    Duration                    : 1 h 40 min
    Bit rate                    : 58 b/s
    Count of elements           : 1211
    Stream size                 : 43.3 KiB (0%)
    Title                       : Español-SRT [CinemaniaHDD]
    Language                    : Spanish
    Default                     : No
    Forced                      : No

    Text #3
    ID                          : 6
    Format                      : UTF-8
    Codec ID                    : S_TEXT/UTF8
    Codec ID/Info               : UTF-8 Plain Text
    Duration                    : 1 h 30 min
    Bit rate                    : 62 b/s
    Count of elements           : 1211
    Stream size                 : 41.1 KiB (0%)
    Title                       : Ingles-SRT [CinemaniaHDD]
    Language                    : English
    Default                     : No
    Forced                      : No

    Menu
    00:00:00.000                : :Chapter 1
    00:03:57.738                : :Chapter 2
    00:09:49.380                : :Chapter 3
    00:15:07.698                : :Chapter 4
    00:16:54.889                : :Chapter 5
    00:21:48.808                : :Chapter 6
    00:24:54.994                : :Chapter 7
    00:28:58.612                : :Chapter 8
    00:31:10.619                : :Chapter 9
    00:38:35.146                : :Chapter 10
    00:44:57.904                : :Chapter 11
    00:53:39.967                : :Chapter 12
    01:01:22.429                : :Chapter 13
    01:06:28.151                : :Chapter 14
    01:11:41.339                : :Chapter 15
    01:16:38.219                : :Chapter 16
    01:24:25.394                : :Chapter 17
    01:31:02.207                : :Chapter 18

  • Peso: 3.25 GiB

Sinopsis

Descargar Encanto (2021) HD 1080p Latino. «Encanto» relata la historia de los Madrigal, una familia extraordinaria que vive en una casa mágica de un pueblo vibrante en las montañas de Colombia escondidas en un “Encanto”. La magia del Encanto ha bendecido a cada niño de la familia con un don único, desde la superfuerza hasta el poder de sanar. A todos, excepto Mirabel, quien desea ser tan especial como el resto de su familia. Pero cuando la magia que rodea al Encanto está en peligro, Mirabel decide que ella, la única Madrigal sin ningún tipo de don único, puede ser la única esperanza de su excepcional familia.

Ficha técnica

Video trailer de la película

Enlaces de descarga

Rip de Bluray

Descargar Encanto (2021) HD 1080p Latino




Aportes de DPeliculasHDmega la pass es:dpeliculashdmega.org Aportes de CinemaniaHD la pass es:cinemaniahdd.com

Películas relacionadas

descargar Encanto (2021) HD 1080p Latino 1080p 1080p gratis, Encanto (2021) HD 1080p Latino 1080p mega 1 link, Encanto (2021) HD 1080p Latino 1080p pelicula completa, descargar Encanto (2021) HD 1080p Latino 1080p gratis en mega.

Encanto (2021) HD 1080p Latino pelicula full hd, Encanto (2021) HD 1080p Latino mega latino, Encanto (2021) HD 1080p Latino 4k latino, Encanto (2021) HD 1080p Latino pelicula completa, Encanto (2021) HD 1080p Latino descargar gratis, descargar Encanto (2021) HD 1080p Latino pelicula latino, Encanto (2021) HD 1080p Latino 1 link mega, Encanto (2021) HD 1080p Latino 1 link google drive, Encanto (2021) HD 1080p Latino hd 1080p latino.
Comentarios 0