En lugar del Sr. Stein (2017) 1080p Latino

915 vistas
1 estrella2 estrellas3 estrellas4 estrellas5 estrellas (Ninguna valoración todavía)
Cargando…

Información de En lugar del Sr. Stein (2017) 1080p Latino

Datos de la película

  • Calidad: 1080p
  • Audio: Español Latino AC3 2.0 Capturado - Frances AC3 5.1 BLURAY
  • Subtitulos: Español Latino SRT
  • Resolución: 1920X1036p
  • Formato: MKV
  • Codec: H.264
  • Encoder: CinemaniaHD
  • Mediainfo: Clic para Mostrar Datos Ver
  • Format                                   : Matroska
    Format version                           : Version 4 / Version 2
    File size                                : 2.81 GiB
    Duration                                 : 1 h 40 min
    Overall bit rate                         : 3 985 kb/s
    Movie name                               : CinemaniaHDD.com
    Encoded date                             : UTC 2018-01-17 00:20:33 / UTC 2018-01-16T22:39:58Z
    Writing application                      : mkvmerge v15.0.0 ('Duel with the Devil') 64-bit
    Writing library                          : libebml v1.3.5 + libmatroska v1.4.5 / Lavf57.7.2

    Video
    ID                                       : 1
    Format                                   : AVC
    Format/Info                              : Advanced Video Codec
    Format profile                           : [email protected]
    Format settings                          : CABAC / 4 Ref Frames
    Format settings, CABAC                   : Yes
    Format settings, RefFrames               : 4 frames
    Codec ID                                 : V_MPEG4/ISO/AVC
    Duration                                 : 1 h 40 min
    Bit rate                                 : 3 330 kb/s
    Nominal bit rate                         : 3 500 kb/s
    Width                                    : 1 920 pixels
    Height                                   : 1 036 pixels
    Display aspect ratio                     : 1.85:1
    Frame rate mode                          : Constant
    Frame rate                               : 24.000 FPS
    Color space                              : YUV
    Chroma subsampling                       : 4:2:0
    Bit depth                                : 8 bits
    Scan type                                : Progressive
    Bits/(Pixel*Frame)                       : 0.070
    Stream size                              : 2.35 GiB (84%)
    Title                                    : descargar En lugar del Sr. Stein (2017) 1080p Latino latino, ver En lugar del Sr. Stein (2017) 1080p Latino online latino, En lugar del Sr. Stein (2017) 1080p Latino 1080p mega latino, En lugar del Sr. Stein (2017) 1080p Latino megahd, En lugar del Sr. Stein (2017) 1080p Latino 720p latino, En lugar del Sr. Stein (2017) 1080p Latino full hd, En lugar del Sr. Stein (2017) 1080p Latino hd latino.
    Writing library                          : x264 core 148 r2708 86b7198
    Encoding settings                        : cabac=1 / ref=4 / deblock=1:0:0 / analyse=0x3:0x113 / me=umh / subme=8 / psy=1 / psy_rd=1.00:0.00 / mixed_ref=1 / me_range=16 / chroma_me=1 / trellis=1 / 8x8dct=1 / cqm=0 / deadzone=21,11 / fast_pskip=1 / chroma_qp_offset=-2 / threads=32 / lookahead_threads=5 / sliced_threads=0 / nr=0 / decimate=1 / interlaced=0 / bluray_compat=0 / constrained_intra=0 / bframes=3 / b_pyramid=2 / b_adapt=2 / b_bias=0 / direct=3 / weightb=1 / open_gop=0 / weightp=2 / keyint=240 / keyint_min=24 / scenecut=40 / intra_refresh=0 / rc_lookahead=50 / rc=abr / mbtree=1 / bitrate=3500 / ratetol=1.0 / qcomp=0.60 / qpmin=0 / qpmax=69 / qpstep=4 / vbv_maxrate=62500 / vbv_bufsize=78125 / nal_hrd=none / filler=0 / ip_ratio=1.40 / aq=1:1.00
    Language                                 : French
    Default                                  : Yes
    Forced                                   : No
    Color range                              : Limited
    Color primaries                          : BT.709
    Transfer characteristics                 : BT.709
    Matrix coefficients                      : BT.709
    Statistics Tags Issue                    : mkvmerge v15.0.0 ('Duel with the Devil') 64-bit 2018-01-17 00:20:33 / mkvmerge v15.0.0 ('Duel with the Devil') 64-bit 2018-01-17 00:20:33 / UTC 2018-01-16T22:39:58Z
    FromStats_BitRate                        : 3406771
    FromStats_Duration                       : 01:40:57.084000000
    FromStats_FrameCount                     : 145370
    FromStats_StreamSize                     : 2579387810

    Audio #1
    ID                                       : 2
    Format                                   : AC-3
    Format/Info                              : Audio Coding 3
    Format settings, Endianness              : Big
    Codec ID                                 : A_AC3
    Duration                                 : 1 h 40 min
    Bit rate mode                            : Constant
    Bit rate                                 : 192 kb/s
    Channel(s)                               : 2 channels
    Channel positions                        : Front: L R
    Sampling rate                            : 44.1 kHz
    Frame rate                               : 28.711 FPS (1536 SPF)
    Bit depth                                : 16 bits
    Compression mode                         : Lossy
    Delay relative to video                  : -5 ms
    Stream size                              : 139 MiB (5%)
    Language                                 : Spanish
    Service kind                             : Complete Main
    Default                                  : Yes
    Forced                                   : No
    Statistics Tags Issue                    : mkvmerge v15.0.0 ('Duel with the Devil') 64-bit 2018-01-17 00:20:33 / mkvmerge v15.0.0 ('Duel with the Devil') 64-bit 2018-01-17 00:20:33 / UTC 2018-01-16T22:39:58Z
    FromStats_BitRate                        : 191999
    FromStats_Duration                       : 01:40:56.995000000
    FromStats_FrameCount                     : 173902
    FromStats_StreamSize                     : 145367874

    Audio #2
    ID                                       : 3
    Format                                   : AC-3
    Format/Info                              : Audio Coding 3
    Format settings, Endianness              : Big
    Codec ID                                 : A_AC3
    Duration                                 : 1 h 40 min
    Bit rate mode                            : Constant
    Bit rate                                 : 384 kb/s
    Channel(s)                               : 6 channels
    Channel positions                        : Front: L C R, Side: L R, LFE
    Sampling rate                            : 48.0 kHz
    Frame rate                               : 31.250 FPS (1536 SPF)
    Bit depth                                : 16 bits
    Compression mode                         : Lossy
    Delay relative to video                  : -5 ms
    Stream size                              : 277 MiB (10%)
    Language                                 : French
    Service kind                             : Complete Main
    Default                                  : No
    Forced                                   : No
    Statistics Tags Issue                    : mkvmerge v15.0.0 ('Duel with the Devil') 64-bit 2018-01-17 00:20:33 / mkvmerge v15.0.0 ('Duel with the Devil') 64-bit 2018-01-17 00:20:33 / UTC 2018-01-16T22:39:58Z
    FromStats_BitRate                        : 384000
    FromStats_Duration                       : 01:40:57.024000000
    FromStats_FrameCount                     : 189282
    FromStats_StreamSize                     : 290737152

    Text
    ID                                       : 4
    Format                                   : UTF-8
    Codec ID                                 : S_TEXT/UTF8
    Codec ID/Info                            : UTF-8 Plain Text
    Language                                 : Spanish
    Default                                  : No
    Forced                                   : No
    Statistics Tags Issue                    : mkvmerge v15.0.0 ('Duel with the Devil') 64-bit 2018-01-17 00:20:33 / mkvmerge v15.0.0 ('Duel with the Devil') 64-bit 2018-01-17 00:20:33 / UTC 2018-01-16T22:39:58Z
    FromStats_BitRate                        : 55
    FromStats_Duration                       : 01:34:18.245000000
    FromStats_FrameCount                     : 1192
    FromStats_StreamSize                     : 38927

  • Peso: 2.81 GiB

Sinopsis

Pierre, viudo y jubilado, no sale de su casa desde hace dos años. Poco a poco descubre las alegrías de Internet gracias a Alex, un joven contratado por su hija para enseñarle los conceptos básicos de los ordenadores. En un sitio de citas, una hermosa joven, Flora63, le ofrece una primera cita.

Ficha técnica

  • Titulo original: Un Profil pour deux
  • Fecha de lanzamiento: 12-04-2017 (France)
  • Director: Stéphane Robelin
  • Género: Comedia, Romance
  • Puntuación: 0.0 0 votos
  • Duración:
    1h 39m

Video trailer de la película

Enlaces de descarga

Rip de Bluray

Descargar En lugar del Sr. Stein (2017) 1080p Latino




Aportes de DPeliculasHDmega la pass es:dpeliculashdmega.org Aportes de CinemaniaHD la pass es:cinemaniahdd.com
Guardado en : Comedia , Romance

Películas relacionadas

  • The Sisters Brothers (2018) 1080p Subtitulado

    2018
    The Sisters Brothers (2018) 1080p Subtitulado

    0.0 2h 2m 2018

    Descargar The Sisters Brothers (2018) 1080p Subtitulado, Mega, Google Drive, Torrent. Narra la historia...

    Director: Jean-Baptiste Pouilloux

    Género: Comedia

    Actores: Zac Abbott

  • Once Upon a Deadpool (2018) Full 1080p Latino

    2018
    Once Upon a Deadpool (2018) Full 1080p Latino

    0.0 1h 57m 2018

    Deadpool (Ryan Reynolds) le cuenta al actor Fred Savage (el niño de "La Princesa Prometida") algunas...

    Director: David Leitch

    Género: Acción

    Actores: Zazie Beetz

  • Campeones (2018) HD 1080p Español

    2018
    Campeones (2018) HD 1080p Español

    0.0 2h 4m 2018

    Descargar Campeones (2018) HD 1080p Español, Mega, Google Drive, Torrent. Marco, un entrenador profesional...

    Director: Javier Fesser

    Género: Castellano

    Actores: Yiyo Alonso

  • Sorry For Your Loss (2018) AMZN 1080p Latino

    2018
    Sorry For Your Loss (2018) AMZN 1080p Latino

    5.0 1h 40m 2018

    Sorry for Your Loss es una comedia oscura que narra la historia de una joven viuda Leigh Gibbs. Para...

    Director: Collin Friesen

    Género: Comedia

    Actores: Sandrine Holt

Comentarios 1
  • Omar Enrique - 19 enero, 2018

    Muchisimas gracias por esta pagina espectacular!