×

¿Problemas para descargar con Mozilla, EDGE? Deshabilita la opción "Abrir vinculos en una pestaña nueva" tal como lo muestra ésta imagen.

En la Tierra (2021) PLACEBO Full HD 1080p Latino

865 vistas

Información de En la Tierra (2021) PLACEBO Full HD 1080p Latino

Datos de la película

  • Calidad: Full 1080p
  • Audio: Español Latino AC3 5.1 WEB-DL - Ingles DTS 5.1 BLURAY
  • Subtitulos: Español Latino SRT- FORZADOS SRT
  • Resolución: 1920x1080p
  • Formato: MKV
  • Codec: H.264
  • Encoder: Melkor
  • Mediainfo: Clic para Mostrar Datos Ver
  • En La Tierra (2021) PLACEBO 1080p Latino.mkv
    Format                      : Matroska
    Format version              : Version 4
    File size                   : 5.40 GiB
    Duration                    : 1 h 47 min
    Overall bit rate            : 7 184 kb/s
    Movie name                  : In the Earth (2021) CinemaniaHDD.Net
    Encoded date                : UTC 2022-04-03 23:01:32
    Writing application         : mkvmerge v56.1.0 ('My Friend') 64-bit
    Writing library             : libebml v1.4.2 + libmatroska v1.6.4
    Attachments                 : CINEMANIAHD.png

    Video
    ID                          : 1
    Format                      : AVC
    Format/Info                 : Advanced Video Codec
    Format profile              : High@L4.1
    Format settings             : CABAC / 4 Ref Frames
    Format settings, CABAC      : Yes
    Format settings, Reference  : 4 frames
    Codec ID                    : V_MPEG4/ISO/AVC
    Duration                    : 1 h 47 min
    Bit rate                    : 5 224 kb/s
    Width                       : 1 920 pixels
    Height                      : 1 080 pixels
    Display aspect ratio        : 16:9
    Frame rate mode             : Constant
    Frame rate                  : 23.976 (24000/1001) FPS
    Color space                 : YUV
    Chroma subsampling          : 4:2:0
    Bit depth                   : 8 bits
    Scan type                   : Progressive
    Bits/(Pixel*Frame)          : 0.105
    Stream size                 : 3.93 GiB (73%)
    Title                       : Full HD1080p [CinemaniaHDD]
    Writing library             : x264 core 163 r3059 b684ebe0
    Encoding settings           : cabac=1 / ref=4 / deblock=1:0:0 / analyse=0x3:0x133 / me=tesa / subme=11 / psy=1 / psy_rd=1.00:0.00 / mixed_ref=1 / me_range=24 / chroma_me=1 / trellis=2 / 8x8dct=1 / cqm=0 / deadzone=21,11 / fast_pskip=0 / chroma_qp_offset=-2 / threads=24 / lookahead_threads=6 / sliced_threads=0 / nr=0 / decimate=1 / interlaced=0 / bluray_compat=0 / constrained_intra=0 / bframes=16 / b_pyramid=2 / b_adapt=2 / b_bias=0 / direct=3 / weightb=1 / open_gop=0 / weightp=2 / keyint=240 / keyint_min=24 / scenecut=40 / intra_refresh=0 / rc_lookahead=60 / rc=crf / mbtree=1 / crf=19.0 / qcomp=0.60 / qpmin=0 / qpmax=69 / qpstep=4 / vbv_maxrate=62500 / vbv_bufsize=78125 / crf_max=0.0 / nal_hrd=none / filler=0 / ip_ratio=1.40 / aq=1:1.00
    Default                     : Yes
    Forced                      : Yes
    Color range                 : Limited
    Color primaries             : BT.709
    Transfer characteristics    : BT.709
    Matrix coefficients         : BT.709

    Audio #1
    ID                          : 2
    Format                      : AC-3
    Format/Info                 : Audio Coding 3
    Commercial name             : Dolby Digital
    Codec ID                    : A_AC3
    Duration                    : 1 h 47 min
    Bit rate mode               : Constant
    Bit rate                    : 448 kb/s
    Channel(s)                  : 6 channels
    Channel layout              : L R C LFE Ls Rs
    Sampling rate               : 48.0 kHz
    Frame rate                  : 31.250 FPS (1536 SPF)
    Compression mode            : Lossy
    Stream size                 : 345 MiB (6%)
    Title                       : Español Latino [CinemaniaHDD]
    Language                    : Spanish
    Service kind                : Complete Main
    Default                     : Yes
    Forced                      : Yes

    Audio #2
    ID                          : 3
    Format                      : DTS
    Format/Info                 : Digital Theater Systems
    Codec ID                    : A_DTS
    Duration                    : 1 h 47 min
    Bit rate mode               : Constant
    Bit rate                    : 1 509 kb/s
    Channel(s)                  : 6 channels
    Channel layout              : C L R Ls Rs LFE
    Sampling rate               : 48.0 kHz
    Frame rate                  : 93.750 FPS (512 SPF)
    Bit depth                   : 24 bits
    Compression mode            : Lossy
    Stream size                 : 1.13 GiB (21%)
    Title                       : Ingles [CinemaniaHDD]
    Language                    : English
    Default                     : No
    Forced                      : No

    Text #1
    ID                          : 4
    Format                      : UTF-8
    Codec ID                    : S_TEXT/UTF8
    Codec ID/Info               : UTF-8 Plain Text
    Duration                    : 9 min 45 s
    Bit rate                    : 1 b/s
    Count of elements           : 6
    Stream size                 : 144 Bytes (0%)
    Title                       : Forzados-SRT [CinemaniaHDD]
    Language                    : Spanish
    Default                     : Yes
    Forced                      : Yes

    Text #2
    ID                          : 5
    Format                      : UTF-8
    Codec ID                    : S_TEXT/UTF8
    Codec ID/Info               : UTF-8 Plain Text
    Duration                    : 1 h 40 min
    Bit rate                    : 43 b/s
    Count of elements           : 1024
    Stream size                 : 32.0 KiB (0%)
    Title                       : Español-SRT [CinemaniaHDD]
    Language                    : Spanish
    Default                     : No
    Forced                      : No

    Text #3
    ID                          : 6
    Format                      : UTF-8
    Codec ID                    : S_TEXT/UTF8
    Codec ID/Info               : UTF-8 Plain Text
    Duration                    : 1 h 40 min
    Bit rate                    : 41 b/s
    Count of elements           : 1164
    Stream size                 : 30.6 KiB (0%)
    Title                       : Ingles [CinemaniaHDD]
    Language                    : English
    Default                     : No
    Forced                      : No

    Menu
    00:00:00.000                : Chapter 01
    00:03:59.072                : Chapter 02
    00:10:02.477                : Chapter 03
    00:14:31.662                : Chapter 04
    00:20:31.147                : Chapter 05
    00:25:38.704                : Chapter 06
    00:28:25.454                : Chapter 07
    00:31:40.107                : Chapter 08
    00:39:23.027                : Chapter 09
    00:46:20.361                : Chapter 10
    00:50:50.756                : Chapter 11
    00:55:13.435                : Chapter 12
    01:02:19.069                : Chapter 13
    01:07:33.508                : Chapter 14
    01:15:59.263                : Chapter 15
    01:20:56.060                : Chapter 16
    01:26:34.398                : Chapter 17
    01:30:25.629                : Chapter 18
    01:37:53.117                : Chapter 19
    01:43:18.150                : Chapter 20

  • Peso: 5.40 GiB

Sinopsis

Descargar En la Tierra (2021) PLACEBO Full HD 1080p Latino. Mientras un virus mortal asola el mundo, el Dr. Martin Lowery se embarca en una misión para llegar al sitio de prueba ATU327A, un centro de investigación en las profundidades del Bosque Arbóreo. El arduo viaje, guiado por la exploradora de parques Alma, se ve retrasado por un ataque nocturno que deja a los dos magullados y descalzos. Cuando se encuentran con Zach, un hombre que vive fuera de la red, aceptan con gratitud su ayuda. Sin embargo, las intenciones de Zach no son exactamente lo que parecen, y un camino fuera del bosque hacia la seguridad se desvanece rápidamente a medida que la línea entre el mito y la ciencia se difumina.

Ficha técnica

Video trailer de la película

Enlaces de descarga

Rip de Bluray

Descargar En la Tierra (2021) PLACEBO Full HD 1080p Latino




Aportes de DPeliculasHDmega la pass es:dpeliculashdmega.org Aportes de CinemaniaHD la pass es:cinemaniahdd.com

Películas relacionadas

  • La Guerra Del Futuro (2022) NF WEB-DL 1080p Latino

    La Guerra Del Futuro (2022) NF WEB-DL 1080p Latino

    2022
    La Guerra Del Futuro (2022) NF WEB-DL 1080p Latino

    1h 41m 2022

    Descargar La Guerra Del Futuro (2022) NF WEB-DL 1080p Latino. Tras la caída de un meteorito que alberga...

    Director: Ng Yuen-fai

    Género: Acción

    Actores: Tse Kwan-Ho

  • The Independent (2022) PCOK WEB-DL 1080p Latino

    The Independent (2022) PCOK WEB-DL 1080p Latino

    2022
    The Independent (2022) PCOK WEB-DL 1080p Latino

    1h 48m 2022

    Una joven periodista descubre una conspiración que involucra a un candidato presidencial de Estados...

    Director: Amy Rice

    Género: Suspenso

    Actores: Zane Pais

  • Observada (2022) HD 1080p Latino

    Observada (2022) HD 1080p Latino

    2022
    Observada (2022) HD 1080p Latino

    1h 35m 2022

    Descargar Observada (2022) HD 1080p Latino. Una joven se muda a un nuevo apartamento con su prometido...

    Director: Chloe Okuno

    Género: HD 1080p

    Actores: Tudor Petruț

  • Observada (2022) PLACEBO Full HD 1080p Latino

    Observada (2022) PLACEBO Full HD 1080p Latino

    2022
    Observada (2022) PLACEBO Full HD 1080p Latino

    1h 35m 2022

    Descargar Observada (2022) PLACEBO Full HD 1080p Latino. Una joven se muda a un nuevo apartamento con...

    Director: Chloe Okuno

    Género: FULL 1080p Plateadas

    Actores: Tudor Petruț

descargar En la Tierra (2021) PLACEBO Full HD 1080p Latino Full 1080p 1080p gratis, En la Tierra (2021) PLACEBO Full HD 1080p Latino Full 1080p mega 1 link, En la Tierra (2021) PLACEBO Full HD 1080p Latino Full 1080p pelicula completa, descargar En la Tierra (2021) PLACEBO Full HD 1080p Latino Full 1080p gratis en mega.

En la Tierra (2021) PLACEBO Full HD 1080p Latino pelicula full hd, En la Tierra (2021) PLACEBO Full HD 1080p Latino mega latino, En la Tierra (2021) PLACEBO Full HD 1080p Latino 4k latino, En la Tierra (2021) PLACEBO Full HD 1080p Latino pelicula completa, En la Tierra (2021) PLACEBO Full HD 1080p Latino descargar gratis, descargar En la Tierra (2021) PLACEBO Full HD 1080p Latino pelicula latino, En la Tierra (2021) PLACEBO Full HD 1080p Latino 1 link mega, En la Tierra (2021) PLACEBO Full HD 1080p Latino 1 link google drive, En la Tierra (2021) PLACEBO Full HD 1080p Latino hd 1080p latino.
Comentarios 0