×

¿Problemas para descargar con Mozilla, EDGE? Deshabilita la opción "Abrir vinculos en una pestaña nueva" tal como lo muestra ésta imagen.

En el Rastro del Enemigo (2022) AMZN WEB-DL 1080p Latino

221 vistas

Información de En el Rastro del Enemigo (2022) AMZN WEB-DL 1080p Latino

Datos de la película

  • Calidad: WEBDL
  • Audio: Español Latino AC3 5.1 WEB-DL - Ingles AC3 5.1 WEB-DL
  • Subtitulos: Español Latino SRT- FORZADOS SRT
  • Resolución: 1920x1040p
  • Formato: MKV
  • Codec: H.264
  • Encoder: Melkor
  • Mediainfo: Clic para Mostrar Datos Ver
  • En el Rastro del Enemigo (2022) AMZN WebDL 1080p Latino.mkv
    Format                      : Matroska
    Format version              : Version 4
    File size                   : 7.75 GiB
    Duration                    : 1 h 35 min
    Overall bit rate            : 11.6 Mb/s
    Movie name                  : Boon (2022) CinemaniaHDD.Net
    Encoded date                : UTC 2023-04-06 22:05:16
    Writing application         : mkvmerge v56.1.0 ('My Friend') 64-bit
    Writing library             : libebml v1.4.2 + libmatroska v1.6.4
    Attachments                 : CINEMANIAHD.png
    Site                        : CinemaniaHDD.Net
    Uploader                    : Melkor

    Video
    ID                          : 1
    Format                      : AVC
    Format/Info                 : Advanced Video Codec
    Format profile              : High@L4
    Format settings             : CABAC / 4 Ref Frames
    Format settings, CABAC      : Yes
    Format settings, Reference  : 4 frames
    Codec ID                    : V_MPEG4/ISO/AVC
    Duration                    : 1 h 35 min
    Bit rate mode               : Constant
    Bit rate                    : 10 000 kb/s
    Width                       : 1 920 pixels
    Height                      : 1 040 pixels
    Display aspect ratio        : 1.85:1
    Frame rate mode             : Constant
    Frame rate                  : 23.976 (24000/1001) FPS
    Color space                 : YUV
    Chroma subsampling          : 4:2:0
    Bit depth                   : 8 bits
    Scan type                   : Progressive
    Bits/(Pixel*Frame)          : 0.209
    Stream size                 : 6.46 GiB (83%)
    Title                       : Web HD1080p [CinemaniaHDD]
    Language                    : English
    Default                     : Yes
    Forced                      : Yes
    Color range                 : Limited
    Color primaries             : BT.709
    Transfer characteristics    : BT.709
    Matrix coefficients         : BT.709

    Audio #1
    ID                          : 2
    Format                      : AC-3
    Format/Info                 : Audio Coding 3
    Commercial name             : Dolby Digital
    Codec ID                    : A_AC3
    Duration                    : 1 h 35 min
    Bit rate mode               : Constant
    Bit rate                    : 640 kb/s
    Channel(s)                  : 6 channels
    Channel layout              : L R C LFE Ls Rs
    Sampling rate               : 48.0 kHz
    Frame rate                  : 31.250 FPS (1536 SPF)
    Compression mode            : Lossy
    Stream size                 : 439 MiB (6%)
    Title                       : Español Latino AC3 [CinemaniaHDD]
    Language                    : Spanish
    Service kind                : Complete Main
    Default                     : Yes
    Forced                      : Yes

    Audio #2
    ID                          : 3
    Format                      : E-AC-3
    Format/Info                 : Enhanced AC-3
    Commercial name             : Dolby Digital Plus
    Codec ID                    : A_EAC3
    Duration                    : 1 h 35 min
    Bit rate mode               : Constant
    Bit rate                    : 640 kb/s
    Channel(s)                  : 6 channels
    Channel layout              : L R C LFE Ls Rs
    Sampling rate               : 48.0 kHz
    Frame rate                  : 31.250 FPS (1536 SPF)
    Compression mode            : Lossy
    Stream size                 : 439 MiB (6%)
    Title                       : Español Latino EAC3 [CinemaniaHDD]
    Language                    : Spanish
    Service kind                : Complete Main
    Default                     : No
    Forced                      : No

    Audio #3
    ID                          : 4
    Format                      : E-AC-3
    Format/Info                 : Enhanced AC-3
    Commercial name             : Dolby Digital Plus
    Codec ID                    : A_EAC3
    Duration                    : 1 h 35 min
    Bit rate mode               : Constant
    Bit rate                    : 640 kb/s
    Channel(s)                  : 6 channels
    Channel layout              : L R C LFE Ls Rs
    Sampling rate               : 48.0 kHz
    Frame rate                  : 31.250 FPS (1536 SPF)
    Compression mode            : Lossy
    Stream size                 : 439 MiB (6%)
    Title                       : Ingles [CinemaniaHDD]
    Language                    : English
    Service kind                : Complete Main
    Default                     : No
    Forced                      : No

    Text #1
    ID                          : 5
    Format                      : UTF-8
    Codec ID                    : S_TEXT/UTF8
    Codec ID/Info               : UTF-8 Plain Text
    Duration                    : 4 s 625 ms
    Bit rate                    : 41 b/s
    Count of elements           : 1
    Stream size                 : 24.0 Bytes (0%)
    Title                       : Forzados-SRT [CinemaniaHDD]
    Language                    : Spanish
    Default                     : Yes
    Forced                      : Yes

    Text #2
    ID                          : 6
    Format                      : UTF-8
    Codec ID                    : S_TEXT/UTF8
    Codec ID/Info               : UTF-8 Plain Text
    Duration                    : 1 h 29 min
    Bit rate                    : 37 b/s
    Count of elements           : 771
    Stream size                 : 24.4 KiB (0%)
    Title                       : Español-SRT [CinemaniaHDD]
    Language                    : Spanish
    Default                     : No
    Forced                      : No

    Text #3
    ID                          : 7
    Format                      : UTF-8
    Codec ID                    : S_TEXT/UTF8
    Codec ID/Info               : UTF-8 Plain Text
    Duration                    : 1 h 28 min
    Bit rate                    : 37 b/s
    Count of elements           : 831
    Stream size                 : 24.1 KiB (0%)
    Title                       : Ingles-SRT [CinemaniaHDD]
    Language                    : English
    Default                     : No
    Forced                      : No

  • Peso: 7.75 GiB

Sinopsis

Descargar En el Rastro del Enemigo (2022) AMZN WEB-DL 1080p Latino. La viuda Catherine está ocupada tratando de protegerse a sí misma y a su hijo de una organización criminal local. Cuando las vidas de Nick Boon y Catherine se cruzan, se encuentran apoyándose el uno en el otro para proteger todo lo que representan.

Ficha técnica

Video trailer de la película

Enlaces de descarga

Rip de Bluray

Descargar En el Rastro del Enemigo (2022) AMZN WEB-DL 1080p Latino




Aportes de DPeliculasHDmega la pass es:dpeliculashdmega.org Aportes de CinemaniaHD la pass es:cinemaniahdd.com Aportes recientes:cinemaniahdd.net
Guardado en : Acción , Crimen , Drama , Misterio , Suspenso

Películas relacionadas

descargar En el Rastro del Enemigo (2022) AMZN WEB-DL 1080p Latino WEBDL 1080p gratis, En el Rastro del Enemigo (2022) AMZN WEB-DL 1080p Latino WEBDL mega 1 link, En el Rastro del Enemigo (2022) AMZN WEB-DL 1080p Latino WEBDL pelicula completa, descargar En el Rastro del Enemigo (2022) AMZN WEB-DL 1080p Latino WEBDL gratis en mega.

En el Rastro del Enemigo (2022) AMZN WEB-DL 1080p Latino pelicula full hd, En el Rastro del Enemigo (2022) AMZN WEB-DL 1080p Latino mega latino, En el Rastro del Enemigo (2022) AMZN WEB-DL 1080p Latino 4k latino, En el Rastro del Enemigo (2022) AMZN WEB-DL 1080p Latino pelicula completa, En el Rastro del Enemigo (2022) AMZN WEB-DL 1080p Latino descargar gratis, descargar En el Rastro del Enemigo (2022) AMZN WEB-DL 1080p Latino pelicula latino, En el Rastro del Enemigo (2022) AMZN WEB-DL 1080p Latino 1 link mega, En el Rastro del Enemigo (2022) AMZN WEB-DL 1080p Latino 1 link google drive, En el Rastro del Enemigo (2022) AMZN WEB-DL 1080p Latino hd 1080p latino.
Comentarios 0