×

¿Problemas para descargar con Mozilla, EDGE? Deshabilita la opción "Abrir vinculos en una pestaña nueva" tal como lo muestra ésta imagen.

Piratas del Caribe: En El fin del Mundo (2007) Web-DL 4K UHD HDR Latino

1.295 vistas

Información de Piratas del Caribe: En El fin del Mundo (2007) Web-DL 4K UHD HDR Latino

Datos de la película

  • Calidad: 4K HDR
  • Audio: Se especifica abajo de la Sinopsis
  • Subtitulos: Español Latino SRT - Ingles SRT
  • Resolución: 3840x2160p
  • Formato: MKV
  • Codec: HEVC
  • Encoder: CinefiloCool
  • Mediainfo: Clic para Mostrar Datos Ver
  • P.o.t.C. - En El Fin Del Mundo (2007) Web-DL UHD HDR Latino-CMHDD.mkv
    Format                      : Matroska
    Format version              : Version 4
    File size                   : 20.3 GiB
    Duration                    : 2 h 48 min
    Overall bit rate            : 17.3 Mb/s
    Movie name                  : CinemaniaHDD.Net
    Encoded date                : UTC 2020-03-11 23:48:56
    Writing application         : mkvmerge v42.0.0 ('Overtime') 64-bit
    Writing library             : libebml v1.3.10 + libmatroska v1.5.2
    Attachments                 : CINEMANIAHD.png

    Video
    ID                          : 1
    Format                      : HEVC
    Format/Info                 : High Efficiency Video Coding
    Format profile              : Main 10@L5@High
    Codec ID                    : V_MPEGH/ISO/HEVC
    Duration                    : 2 h 48 min
    Bit rate                    : 16.4 Mb/s
    Width                       : 3 840 pixels
    Height                      : 2 160 pixels
    Display aspect ratio        : 16:9
    Frame rate mode             : Constant
    Frame rate                  : 23.976 (24000/1001) FPS
    Color space                 : YUV
    Chroma subsampling          : 4:2:0
    Bit depth                   : 10 bits
    Bits/(Pixel*Frame)          : 0.082
    Stream size                 : 19.3 GiB (95%)
    Title                       : 2160p HDR [Bluray]
    Default                     : Yes
    Forced                      : Yes
    Color range                 : Limited
    Color primaries             : BT.2020
    Transfer characteristics    : PQ
    Matrix coefficients         : BT.2020 non-constant

    Audio #1
    ID                          : 2
    Format                      : AC-3
    Format/Info                 : Audio Coding 3
    Commercial name             : Dolby Digital
    Codec ID                    : A_AC3
    Duration                    : 2 h 48 min
    Bit rate mode               : Constant
    Bit rate                    : 640 kb/s
    Channel(s)                  : 6 channels
    Channel layout              : L R C LFE Ls Rs
    Sampling rate               : 48.0 kHz
    Frame rate                  : 31.250 FPS (1536 SPF)
    Bit depth                   : 16 bits
    Compression mode            : Lossy
    Delay relative to video     : 22 ms
    Stream size                 : 771 MiB (4%)
    Title                       : AC3_5.1_Bluray_Esp
    Language                    : Spanish
    Service kind                : Complete Main
    Default                     : Yes
    Forced                      : Yes

    Audio #2
    ID                          : 3
    Format                      : E-AC-3
    Format/Info                 : Enhanced AC-3
    Commercial name             : Dolby Digital Plus
    Codec ID                    : A_EAC3
    Duration                    : 2 h 48 min
    Bit rate mode               : Constant
    Bit rate                    : 256 kb/s
    Channel(s)                  : 6 channels
    Channel layout              : L R C LFE Ls Rs
    Sampling rate               : 48.0 kHz
    Frame rate                  : 31.250 FPS (1536 SPF)
    Compression mode            : Lossy
    Stream size                 : 309 MiB (1%)
    Title                       : DDP_5.1_Web_Eng
    Language                    : English
    Service kind                : Complete Main
    Default                     : No
    Forced                      : No

    Text #1
    ID                          : 4
    Format                      : UTF-8
    Codec ID                    : S_TEXT/UTF8
    Codec ID/Info               : UTF-8 Plain Text
    Duration                    : 2 h 42 min
    Bit rate                    : 0 b/s
    Count of elements           : 5
    Stream size                 : 124 Bytes (0%)
    Title                       : Sub_Forzados
    Language                    : Spanish
    Default                     : Yes
    Forced                      : Yes

    Text #2
    ID                          : 5
    Format                      : UTF-8
    Codec ID                    : S_TEXT/UTF8
    Codec ID/Info               : UTF-8 Plain Text
    Duration                    : 2 h 46 min
    Bit rate                    : 39 b/s
    Count of elements           : 1508
    Stream size                 : 47.9 KiB (0%)
    Title                       : Sub_Esp
    Language                    : Spanish
    Default                     : No
    Forced                      : No

    Text #3
    ID                          : 6
    Format                      : UTF-8
    Codec ID                    : S_TEXT/UTF8
    Codec ID/Info               : UTF-8 Plain Text
    Duration                    : 2 h 46 min
    Bit rate                    : 41 b/s
    Count of elements           : 1651
    Stream size                 : 51.1 KiB (0%)
    Title                       : Sub_Eng
    Language                    : English
    Default                     : No
    Forced                      : No

    Menu
    00:00:00.000                : en:Suspended
    00:04:31.370                : en:A Dangerous Song
    00:09:59.239                : en:Welcome to Singapore
    00:19:55.710                : en:Cold
    00:26:04.912                : en:Captain's Commands
    00:32:44.770                : en:A Jack of All Trades
    00:39:37.766                : en:Davy Jones' Locker
    00:46:02.191                : en:Souls at Sea
    00:51:29.393                : en:Rock and Roll
    00:58:01.160                : en:The Last Pirate
    01:04:48.108                : en:An Old Friend
    01:12:44.250                : en:A New Captain
    01:17:52.308                : en:Bootstrap
    01:24:43.969                : en:Choosing a Side
    01:28:38.787                : en:Shipwreck Island
    01:33:31.580                : en:Brethren Court
    01:38:03.101                : en:Reunion
    01:41:50.411                : en:The Pirate Code
    01:48:10.082                : en:The Exchange
    01:53:10.716                : en:Pieces of Eight
    01:59:28.802                : en:A Fool's Chance
    02:05:49.641                : en:Leverage
    02:09:10.675                : en:Time to Fly
    02:13:50.955                : en:Community Chest
    02:23:16.687                : en:Good Business
    02:28:13.066                : en:Turning Away
    02:34:26.647                : en:Egregious
    02:38:45.990                : en:Credits
    02:48:27.530                : en:End

  • Peso: 20.3 GiB

Sinopsis

Descargar Piratas del Caribe: En El fin del Mundo (2007) Web-DL 4K UHD HDR Latino. Siguiendo la estela de lo sucedido en “Piratas del caribe: El cofre del hombre muerto”, encontramos a nuestros héroes Will Turner y Elizabeth Swann aliados con el Capitán Barbossa, en una búsqueda desesperada para liberar al capitán Jack Sparrow de las manos de Davy Jones. Mientras, el terrorífico barco fantasma, el Holandés Errante, bajo el control de la Compañía de las Indias Orientales, causa estragos a lo largo de los Siete Mares. Will y Elizabeth, navegando en medio de la traición, la felonía y mares salvajes, deben seguir adelante rumbo a Singapur y enfrentarse al astuto pirata chino Sao Feng. Ahora, en los mismísimos confines de la tierra, todos ellos deben elegir un bando en la batalla final, ya que no sólo sus vidas y fortunas, sino también el futuro de la piratería clásica, pende de un hilo…

Audio Español Latino AC3 5.1 Bluray – Ingles EAC3 5.1 Web-DL

Ficha técnica

Video trailer de la película

Enlaces de descarga

Rip de Bluray

Descargar Piratas del Caribe: En El fin del Mundo (2007) Web-DL 4K UHD HDR Latino




Aportes de DPeliculasHDmega la pass es:dpeliculashdmega.org Aportes de CinemaniaHD la pass es:cinemaniahdd.com
Guardado en : 4K HDR , 4K UHD , Acción , Aventura , Fantasía

Películas relacionadas

descargar Piratas del Caribe: En El fin del Mundo (2007) Web-DL 4K UHD HDR Latino 4K HDR 1080p gratis, Piratas del Caribe: En El fin del Mundo (2007) Web-DL 4K UHD HDR Latino 4K HDR mega 1 link, Piratas del Caribe: En El fin del Mundo (2007) Web-DL 4K UHD HDR Latino 4K HDR pelicula completa, descargar Piratas del Caribe: En El fin del Mundo (2007) Web-DL 4K UHD HDR Latino 4K HDR gratis en mega.

Piratas del Caribe: En El fin del Mundo (2007) Web-DL 4K UHD HDR Latino pelicula full hd, Piratas del Caribe: En El fin del Mundo (2007) Web-DL 4K UHD HDR Latino mega latino, Piratas del Caribe: En El fin del Mundo (2007) Web-DL 4K UHD HDR Latino 4k latino, Piratas del Caribe: En El fin del Mundo (2007) Web-DL 4K UHD HDR Latino pelicula completa, Piratas del Caribe: En El fin del Mundo (2007) Web-DL 4K UHD HDR Latino descargar gratis, descargar Piratas del Caribe: En El fin del Mundo (2007) Web-DL 4K UHD HDR Latino pelicula latino, Piratas del Caribe: En El fin del Mundo (2007) Web-DL 4K UHD HDR Latino 1 link mega, Piratas del Caribe: En El fin del Mundo (2007) Web-DL 4K UHD HDR Latino 1 link google drive, Piratas del Caribe: En El fin del Mundo (2007) Web-DL 4K UHD HDR Latino hd 1080p latino.
Comentarios 0