En busca de la felicidad (2006) Full 1080p Latino

1.553 vistas
1 estrella2 estrellas3 estrellas4 estrellas5 estrellas (8 votos, promedio: 4,25 de 5)
Cargando…

Información de En busca de la felicidad (2006) Full 1080p Latino

Datos de la película

  • Calidad: Full 1080p
  • Audio: Español Latino AC3 5.1 BLURAY - Ingles AC3 5.1 BLURAY
  • Subtitulos: Español Latino PGS - Ingles PGS
  • Resolución: 1920x1080p
  • Formato: MKV
  • Codec: H.264
  • Encoder: Dracarys
  • Mediainfo: Clic para Mostrar Datos Ver
  • Format                                   : Matroska
    Format version                           : Version 4 / Version 2
    File size                                : 5.23 GiB
    Duration                                 : 1 h 57 min
    Overall bit rate                         : 6 376 kb/s
    Movie name                               : CinemaniaHDD.net
    Encoded date                             : UTC 2018-08-09 02:20:45 / UTC 2018-08-08T07:28:09Z
    Writing application                      : mkvmerge v15.0.0 ('Duel with the Devil') 64-bit
    Writing library                          : libebml v1.3.5 + libmatroska v1.4.5 / Lavf57.7.2

    Video
    ID                                       : 1
    Format                                   : AVC
    Format/Info                              : Advanced Video Codec
    Format profile                           : High@L4.1
    Format settings                          : CABAC / 4 Ref Frames
    Format settings, CABAC                   : Yes
    Format settings, RefFrames               : 4 frames
    Codec ID                                 : V_MPEG4/ISO/AVC
    Duration                                 : 1 h 57 min
    Bit rate                                 : 4 969 kb/s
    Width                                    : 1 920 pixels
    Height                                   : 1 080 pixels
    Display aspect ratio                     : 16:9
    Frame rate mode                          : Constant
    Frame rate                               : 23.976 (24000/1001) FPS
    Color space                              : YUV
    Chroma subsampling                       : 4:2:0
    Bit depth                                : 8 bits
    Scan type                                : Progressive
    Bits/(Pixel*Frame)                       : 0.100
    Stream size                              : 4.08 GiB (78%)
    Title                                    : En busca de la felicidad (2006) Full 1080p Latino
    Writing library                          : x264 core 148 r2708 86b7198
    Encoding settings                        : cabac=1 / ref=4 / deblock=1:0:0 / analyse=0x3:0x133 / me=esa / subme=10 / psy=1 / psy_rd=1.00:0.00 / mixed_ref=1 / me_range=24 / chroma_me=1 / trellis=2 / 8x8dct=1 / cqm=0 / deadzone=21,11 / fast_pskip=1 / chroma_qp_offset=-2 / threads=34 / lookahead_threads=5 / sliced_threads=0 / nr=0 / decimate=1 / interlaced=0 / bluray_compat=0 / constrained_intra=0 / bframes=8 / b_pyramid=2 / b_adapt=2 / b_bias=0 / direct=3 / weightb=1 / open_gop=0 / weightp=2 / keyint=240 / keyint_min=24 / scenecut=40 / intra_refresh=0 / rc_lookahead=60 / rc=crf / mbtree=1 / crf=20.0 / qcomp=0.60 / qpmin=0 / qpmax=69 / qpstep=4 / vbv_maxrate=62500 / vbv_bufsize=78125 / crf_max=0.0 / nal_hrd=none / filler=0 / ip_ratio=1.40 / aq=1:1.00
    Language                                 : English
    Default                                  : Yes
    Forced                                   : No
    Color range                              : Limited
    Color primaries                          : BT.709
    Transfer characteristics                 : BT.709
    Matrix coefficients                      : BT.709
    Statistics Tags Issue                    : mkvmerge v15.0.0 ('Duel with the Devil') 64-bit 2018-08-09 02:20:45 / mkvmerge v15.0.0 ('Duel with the Devil') 64-bit 2018-08-09 02:20:45 / UTC 2018-08-08T07:28:09Z
    FromStats_BitRate                        : 5061208
    FromStats_Duration                       : 01:57:26.999000000
    FromStats_FrameCount                     : 168959
    FromStats_StreamSize                     : 4458291476

    Audio #1
    ID                                       : 2
    Format                                   : AC-3
    Format/Info                              : Audio Coding 3
    Format settings, Endianness              : Big
    Codec ID                                 : A_AC3
    Duration                                 : 1 h 57 min
    Bit rate mode                            : Constant
    Bit rate                                 : 640 kb/s
    Channel(s)                               : 6 channels
    Channel positions                        : Front: L C R, Side: L R, LFE
    Sampling rate                            : 48.0 kHz
    Frame rate                               : 31.250 FPS (1536 SPF)
    Bit depth                                : 16 bits
    Compression mode                         : Lossy
    Delay relative to video                  : -5 ms
    Stream size                              : 538 MiB (10%)
    Language                                 : Spanish
    Service kind                             : Complete Main
    Default                                  : Yes
    Forced                                   : No
    Statistics Tags Issue                    : mkvmerge v15.0.0 ('Duel with the Devil') 64-bit 2018-08-09 02:20:45 / mkvmerge v15.0.0 ('Duel with the Devil') 64-bit 2018-08-09 02:20:45 / UTC 2018-08-08T07:28:09Z
    FromStats_BitRate                        : 640000
    FromStats_Duration                       : 01:57:27.040000000
    FromStats_FrameCount                     : 220220
    FromStats_StreamSize                     : 563763200

    Audio #2
    ID                                       : 3
    Format                                   : AC-3
    Format/Info                              : Audio Coding 3
    Format settings, Endianness              : Big
    Codec ID                                 : A_AC3
    Duration                                 : 1 h 57 min
    Bit rate mode                            : Constant
    Bit rate                                 : 640 kb/s
    Channel(s)                               : 6 channels
    Channel positions                        : Front: L C R, Side: L R, LFE
    Sampling rate                            : 48.0 kHz
    Frame rate                               : 31.250 FPS (1536 SPF)
    Bit depth                                : 16 bits
    Compression mode                         : Lossy
    Stream size                              : 538 MiB (10%)
    Language                                 : English
    Service kind                             : Complete Main
    Default                                  : No
    Forced                                   : No
    Statistics Tags Issue                    : mkvmerge v15.0.0 ('Duel with the Devil') 64-bit 2018-08-09 02:20:45 / mkvmerge v15.0.0 ('Duel with the Devil') 64-bit 2018-08-09 02:20:45 / UTC 2018-08-08T07:28:09Z
    FromStats_BitRate                        : 640000
    FromStats_Duration                       : 01:57:27.040000000
    FromStats_FrameCount                     : 220220
    FromStats_StreamSize                     : 563763200

    Text #1
    ID                                       : 4
    Format                                   : PGS
    Muxing mode                              : zlib
    Codec ID                                 : S_HDMV/PGS
    Codec ID/Info                            : Picture based subtitle format used on BDs/HD-DVDs
    Language                                 : English
    Default                                  : No
    Forced                                   : No
    Statistics Tags Issue                    : mkvmerge v15.0.0 ('Duel with the Devil') 64-bit 2018-08-09 02:20:45 / mkvmerge v15.0.0 ('Duel with the Devil') 64-bit 2018-08-09 02:20:45 / UTC 2018-08-08T07:28:09Z
    FromStats_BitRate                        : 56143
    FromStats_Duration                       : 01:51:45.116000000
    FromStats_FrameCount                     : 2706
    FromStats_StreamSize                     : 47055690

    Text #2
    ID                                       : 5
    Format                                   : PGS
    Muxing mode                              : zlib
    Codec ID                                 : S_HDMV/PGS
    Codec ID/Info                            : Picture based subtitle format used on BDs/HD-DVDs
    Language                                 : Spanish
    Default                                  : No
    Forced                                   : No
    Statistics Tags Issue                    : mkvmerge v15.0.0 ('Duel with the Devil') 64-bit 2018-08-09 02:20:45 / mkvmerge v15.0.0 ('Duel with the Devil') 64-bit 2018-08-09 02:20:45 / UTC 2018-08-08T07:28:09Z
    FromStats_BitRate                        : 50421
    FromStats_Duration                       : 01:52:39.920000000
    FromStats_FrameCount                     : 2600
    FromStats_StreamSize                     : 42606082

    Menu
    00:00:00.000                             : :Chapter 1
    00:05:09.017                             : :Chapter 2
    00:12:36.256                             : :Chapter 3
    00:22:25.553                             : :Chapter 4
    00:28:09.897                             : :Chapter 5
    00:33:33.929                             : :Chapter 6
    00:41:18.101                             : :Chapter 7
    00:48:15.518                             : :Chapter 8
    00:55:49.513                             : :Chapter 9
    01:02:17.234                             : :Chapter 10
    01:09:20.365                             : :Chapter 11
    01:17:49.456                             : :Chapter 12
    01:24:34.236                             : :Chapter 13
    01:33:57.298                             : :Chapter 14
    01:41:19.240                             : :Chapter 15
    01:48:29.461                             : :Chapter 16

  • Peso: 5.23 GiB

Sinopsis

Chris Gardner es un vendedor brillante y con talento, pero su empleo no le permite cubrir sus necesidades más básicas. Tanto es así que acaban echándolo, junto a su hijo de cinco años, de su piso de San Francisco y no tienen ningún lugar al que ir. Cuando Gardner consigue hacer unas prácticas en una prestigiosa correduría de bolsa, los dos protagonistas tendrán que afrontar muchas adversidades parar hacer realidad su sueño de una vida mejor. Basada en hechos reales.

Ficha técnica

Video trailer de la película

Enlaces de descarga

Rip de Bluray

Descargar En busca de la felicidad (2006) Full 1080p Latino




Aportes de DPeliculasHDmega la pass es:dpeliculashdmega.org Aportes de CinemaniaHD la pass es:cinemaniahdd.com
Guardado en : Drama , FULL 1080p Plateadas

Películas relacionadas

  • Blood Brother (2018) WEBDL 1080p Latino

    2018
    Blood Brother (2018) WEBDL 1080p Latino

    0.0 1h 30m 2018

    El hermano de sangre se desarrolla en las calles de una ciudad en decadencia, donde un convicto recientemente...

    Director: John Pogue

    Género: Acción

    Actores: Trey Songz

  • Duro de matar 4.0 (2007) Full 1080p Latino

    2007
    Duro de matar 4.0 (2007) Full 1080p Latino

    5.0 2h 8m 2007

    En Estados Unidos, la infraestructura de ordenadores que controla todo tipo de comunicaciones, transportes...

    Director: Len Wiseman

    Género: Acción

    Actores: Zeljko Ivanek

  • Duro de matar 2 (1990) Full 1080p Latino

    1990
    Duro de matar 2 (1990) Full 1080p Latino

    5.0 2h 4m 1990

    Es Navidad. El policía del departamento de Los Angeles, teniente John McLane, espera en el aeropuerto...

    Director: Susana Preston

    Género: Acción

    Actores: William Sadler

Comentarios 0