×

¿Problemas para descargar con Mozilla, EDGE? Deshabilita la opción "Abrir vinculos en una pestaña nueva" tal como lo muestra ésta imagen.

En Brazos de un Asesino (2019) WEB-DL 1080p Latino

1.078 vistas

Información de En Brazos de un Asesino (2019) WEB-DL 1080p Latino

Datos de la película

  • Calidad: WEBDL
  • Audio: Español Latino AC3 5.1
  • Subtitulos: Ingles SRT
  • Resolución: 1908x792
  • Formato: MKV
  • Codec: H.264
  • Encoder: cinemaniahdd
  • Mediainfo: Clic para Mostrar Datos Ver
  • En Brazos de un Asesino (2019) WEB-DL 1080p Latino.mkv
    Format                      : Matroska
    Format version              : Version 4
    File size                   : 3.52 GiB
    Duration                    : 1 h 41 min
    Overall bit rate            : 4 984 kb/s
    Movie name                  : En Brazos de un Asesino (2019) - CinemaniaHDD.Net
    Encoded date                : UTC 2020-03-10 06:45:40
    Writing application         : mkvmerge v42.0.0 ('Overtime') 64-bit
    Writing library             : libebml v1.3.10 + libmatroska v1.5.2
    Cover                       : Yes
    Attachments                 : cover.jpg

    Video
    ID                          : 1
    Format                      : AVC
    Format/Info                 : Advanced Video Codec
    Format profile              : High@L4
    Format settings             : CABAC / 5 Ref Frames
    Format settings, CABAC      : Yes
    Format settings, ReFrames   : 5 frames
    Codec ID                    : V_MPEG4/ISO/AVC
    Duration                    : 1 h 41 min
    Bit rate                    : 4 598 kb/s
    Width                       : 1 908 pixels
    Height                      : 792 pixels
    Display aspect ratio        : 2.40:1
    Frame rate mode             : Constant
    Frame rate                  : 23.976 (24000/1001) FPS
    Color space                 : YUV
    Chroma subsampling          : 4:2:0
    Bit depth                   : 8 bits
    Scan type                   : Progressive
    Bits/(Pixel*Frame)          : 0.127
    Stream size                 : 3.25 GiB (92%)
    Title                       : CinemaniaHDD
    Language                    : English
    Default                     : Yes
    Forced                      : No
    Color range                 : Limited
    Color primaries             : BT.709
    Transfer characteristics    : BT.709
    Matrix coefficients         : BT.709

    Audio
    ID                          : 2
    Format                      : AC-3
    Format/Info                 : Audio Coding 3
    Commercial name             : Dolby Digital
    Codec ID                    : A_AC3
    Duration                    : 1 h 41 min
    Bit rate mode               : Constant
    Bit rate                    : 384 kb/s
    Channel(s)                  : 6 channels
    Channel layout              : L R C LFE Ls Rs
    Sampling rate               : 48.0 kHz
    Frame rate                  : 31.250 FPS (1536 SPF)
    Bit depth                   : 16 bits
    Compression mode            : Lossy
    Delay relative to video     : -42 ms
    Stream size                 : 278 MiB (8%)
    Title                       : Español latino [CinemaniaHDD]
    Language                    : Spanish
    Service kind                : Complete Main
    Default                     : Yes
    Forced                      : No

    Text
    ID                          : 3
    Format                      : UTF-8
    Codec ID                    : S_TEXT/UTF8
    Codec ID/Info               : UTF-8 Plain Text
    Duration                    : 1 h 40 min
    Bit rate                    : 32 b/s
    Count of elements           : 798
    Stream size                 : 23.7 KiB (0%)
    Title                       : Inglés [CinemaniaHDD]
    Language                    : English
    Default                     : No
    Forced                      : No

    Menu
    00:00:00.000                : en:1
    00:02:37.000                : en:2
    00:11:31.000                : en:3
    00:17:44.000                : en:4
    00:27:08.000                : en:5
    00:38:05.000                : en:6
    00:47:32.000                : en:7
    00:57:44.000                : en:8
    01:06:33.000                : en:9
    01:15:55.000                : en:10
    01:25:03.000                : en:11
    01:37:18.000                : en:12

     

  • Peso: 3.52 GiB

Sinopsis

Victor (William Levy) es uno de los hombres más guapos del mundo, pero tiene un secreto profundo: es un asesino a sangre fría. Con voz suave y seductora, Víctor fue criado para hacer una sola cosa, que es matar por dinero. Cuando es enviado a la casa de un brutal narcotraficante para cobrar el pago de su golpe más reciente, se encuentra con la bella Sarai (Alicia Sanz), que se ha visto obligada a pasar los últimos 9 años de su vida con el narcotraficante.

Ficha técnica

Video trailer de la película

Enlaces de descarga

Rip de Bluray

Descargar En Brazos de un Asesino (2019) WEB-DL 1080p Latino




Aportes de DPeliculasHDmega la pass es:dpeliculashdmega.org Aportes de CinemaniaHD la pass es:cinemaniahdd.com
Guardado en : Romance , Suspenso

Películas relacionadas

  • Jaula Mental (2022) HD 1080p Latino

    Jaula Mental (2022) HD 1080p Latino

    2022
    Jaula Mental (2022) HD 1080p Latino

    1h 47m 2022

    Descargar Jaula Mental (2022) HD 1080p Latino. Cuando un asesino que imita otros crímenes comienza a...

    Director: Mauro Borrelli

    Género: Crimen

    Actores: Victoria Fox

  • Jaula Mental (2022) PLACEBO Full HD 1080p Latino

    Jaula Mental (2022) PLACEBO Full HD 1080p Latino

    2022
    Jaula Mental (2022) PLACEBO Full HD 1080p Latino

    1h 47m 2022

    Descargar Jaula Mental (2022) PLACEBO Full HD 1080p Latino. Cuando un asesino que imita otros crímenes...

    Director: Mauro Borrelli

    Género: Crimen

    Actores: Victoria Fox

  • Jaula Mental (2022) REMUX 1080p Latino

    Jaula Mental (2022) REMUX 1080p Latino

    2022
    Jaula Mental (2022) REMUX 1080p Latino

    1h 47m 2022

    Descargar Jaula Mental (2022) REMUX 1080p Latino. Cuando un asesino que imita otros crímenes comienza...

    Director: Mauro Borrelli

    Género: Crimen

    Actores: Victoria Fox

  • Transfusion (2023) HD 1080p Latino

    Transfusion (2023) HD 1080p Latino

    2023
    Transfusion (2023) HD 1080p Latino

    1h 45m 2023

    Descargar Transfusion (2023) HD 1080p Latino. Un antiguo agente de las Fuerzas Especiales se ve empujado...

    Director: Matt Nable

    Género: Crimen

    Actores: Trystan Go

  • Transfusion (2023) PLACEBO Full HD 1080p Latino

    Transfusion (2023) PLACEBO Full HD 1080p Latino

    2023
    Transfusion (2023) PLACEBO Full HD 1080p Latino

    1h 45m 2023

    Descargar Transfusion (2023) PLACEBO Full HD 1080p Latino. Un antiguo agente de las Fuerzas Especiales...

    Director: Matt Nable

    Género: Crimen

    Actores: Trystan Go

descargar En Brazos de un Asesino (2019) WEB-DL 1080p Latino WEBDL 1080p gratis, En Brazos de un Asesino (2019) WEB-DL 1080p Latino WEBDL mega 1 link, En Brazos de un Asesino (2019) WEB-DL 1080p Latino WEBDL pelicula completa, descargar En Brazos de un Asesino (2019) WEB-DL 1080p Latino WEBDL gratis en mega.

En Brazos de un Asesino (2019) WEB-DL 1080p Latino pelicula full hd, En Brazos de un Asesino (2019) WEB-DL 1080p Latino mega latino, En Brazos de un Asesino (2019) WEB-DL 1080p Latino 4k latino, En Brazos de un Asesino (2019) WEB-DL 1080p Latino pelicula completa, En Brazos de un Asesino (2019) WEB-DL 1080p Latino descargar gratis, descargar En Brazos de un Asesino (2019) WEB-DL 1080p Latino pelicula latino, En Brazos de un Asesino (2019) WEB-DL 1080p Latino 1 link mega, En Brazos de un Asesino (2019) WEB-DL 1080p Latino 1 link google drive, En Brazos de un Asesino (2019) WEB-DL 1080p Latino hd 1080p latino.
Comentarios 0